<?xml version="1.0" standalone="no"?>
<!DOCTYPE svg PUBLIC "-//W3C//DTD SVG 1.1//EN" "http://www.w3.org/Graphics/SVG/1.1/DTD/svg11.dtd" >
<svg xmlns="http://www.w3.org/2000/svg" xmlns:xlink="http://www.w3.org/1999/xlink" version="1.1">
<metadata>
Created by FontForge 20190801 at Thu Sep 17 03:27:56 2020
 By www-data
</metadata>
<defs>
<font id="hiraginokakugothicprow3" horiz-adv-x="1000" vert-adv-y="1000" >
  <font-face 
    font-family="hiraginokakugothicprow3"
    font-weight="200"
    font-stretch="normal"
    units-per-em="1000"
    panose-1="2 0 3 3 0 0 0 0 0 0"
    ascent="800"
    descent="-200"
    bbox="15 -102 985 863"
    underline-thickness="50"
    underline-position="-100"
    unicode-range="U+2155-32BF"
  />
<missing-glyph horiz-adv-x="500" 
d="M50 0v533h400v-533h-400zM100 50h300v433h-300v-433z" />
    <glyph glyph-name=".notdef" horiz-adv-x="500" 
d="M50 0v533h400v-533h-400zM100 50h300v433h-300v-433z" />
    <glyph glyph-name=".null" horiz-adv-x="0" vert-adv-y="0" 
 />
    <glyph glyph-name="nonmarkingreturn" horiz-adv-x="333" 
 />
    <glyph glyph-name="Japan1.15727" unicode="&#x2155;" horiz-adv-x="884" 
d="M81 20l605 766l40 -31l-606 -767zM77 705v64q14 -3 47 -3h57q23 0 47 3q-5 -58 -5 -93v-272q0 -34 5 -63h-76q5 25 5 63v304h-31q-26 0 -49 -3zM588 180l-58 5q1 5 3 11q5 23 8 55l10 122q2 24 2 31q0 12 -3 34l7 -1q6 -1 14 -3q12 -2 49 -2h111q33 0 74 6v-66
q-32 5 -74 5h-120l-7 -89q0 -7 -1 -13q0 -1 -0.5 -2.5t-0.5 -3t-0.5 -4t-0.5 -4.5q36 33 86 33q61 0 103 -40q39 -39 39 -105q0 -71 -42.5 -113.5t-113.5 -42.5q-44 0 -80.5 19t-56.5 52q-1 3 -7.5 16t-9.5 20l66 20q5 -17 9 -26q24 -44 80 -44q41 0 65.5 26.5t24.5 69.5
t-23.5 68t-63.5 25q-27 0 -50 -11.5t-33 -30.5q0 -1 -6 -17z" />
    <glyph glyph-name="Japan1.7575" unicode="&#x2160;" 
d="M453 760h95q-9 -50 -9 -112v-536q0 -61 9 -112h-95q8 49 8 112v536q0 64 -8 112z" />
    <glyph glyph-name="Japan1.7576" unicode="&#x2161;" 
d="M329 760h93q-8 -47 -8 -112v-536q0 -65 8 -112h-93q8 47 8 112v536q0 63 -8 112zM578 760h93q-8 -45 -8 -112v-536q0 -65 8 -112h-93q8 45 8 112v536q0 64 -8 112z" />
    <glyph glyph-name="Japan1.7577" unicode="&#x2162;" 
d="M214 760h91q-8 -45 -8 -113v-534q0 -68 8 -113h-91q8 47 8 113v534q0 66 -8 113zM453 760h91q-8 -45 -8 -113v-534q0 -65 8 -113h-91q8 48 8 113v534q0 66 -8 113zM694 760h91q-8 -45 -8 -113v-534q0 -65 8 -113h-91q8 49 8 113v534q0 66 -8 113z" />
    <glyph glyph-name="Japan1.7578" unicode="&#x2163;" 
d="M417 656l179 -504q0 -2 3 -10l8 -24q2 -8 12 -37q10 40 21 71l178 504q22 64 28 104h100q-22 -38 -49 -116l-203 -550q-21 -57 -30 -94h-92q-5 22 -7 27q-15 40 -24 67l-203 550q-31 83 -49 116h100q8 -47 28 -104zM117 760h91q-8 -45 -8 -113v-534q0 -68 8 -113h-91
q8 47 8 113v534q0 66 -8 113z" />
    <glyph glyph-name="Japan1.7579" unicode="&#x2164;" 
d="M287 658l190 -512q8 -22 24 -70q10 31 23 70l188 512q25 64 29 102h104q-18 -31 -51 -116l-214 -551q-23 -60 -31 -93h-97q-5 26 -32 93l-214 551q-30 80 -51 116h103q8 -42 29 -102z" />
    <glyph glyph-name="Japan1.7580" unicode="&#x2165;" 
d="M182 656l179 -504q2 -6 11 -32q1 -2 12 -39q12 44 22 71l177 504q23 68 28 104h100q-21 -38 -49 -116l-203 -550q-24 -67 -29 -94h-93q-5 20 -7 27q-14 40 -23 67l-204 550q-27 77 -49 116h100q9 -49 28 -104zM791 760h91q-8 -45 -8 -113v-534q0 -68 8 -113h-91
q8 47 8 113v534q0 66 -8 113z" />
    <glyph glyph-name="Japan1.7581" unicode="&#x2166;" 
d="M513 760h93q-19 -38 -45 -116l-181 -550q-15 -46 -26 -94h-79q-6 29 -27 94l-182 550q-28 81 -45 116h90q6 -40 27 -103l159 -497q3 -9 17 -65q10 45 16 62l159 500q18 58 24 103zM645 760h87q-8 -47 -8 -113v-534q0 -68 8 -113h-87q8 48 8 113v534q0 68 -8 113zM843 760
h87q-8 -44 -8 -113v-534q0 -66 8 -113h-87q8 49 8 113v534q0 65 -8 113z" />
    <glyph glyph-name="Japan1.7582" unicode="&#x2167;" 
d="M427 760h84q-17 -42 -35 -116l-148 -550q-18 -68 -22 -94h-73q-3 23 -22 94l-148 550q-18 68 -37 116h85q3 -35 20 -104l128 -497q2 -7 5 -22q2 -12 6 -29l6 30q4 20 4 21l128 497q15 58 19 104zM538 760h82q-8 -47 -8 -113v-534q0 -66 8 -113h-82q8 47 8 113v534
q0 65 -8 113zM703 760h82q-8 -47 -8 -113v-534q0 -69 8 -113h-82q8 45 8 113v534q0 66 -8 113zM867 760h82q-8 -45 -8 -113v-534q0 -68 8 -113h-82q8 49 8 113v534q0 65 -8 113z" />
    <glyph glyph-name="Japan1.7583" unicode="&#x2168;" 
d="M615 345l-154 -243q-29 -45 -54 -102h-111q49 64 84 117l186 284l-164 249q-27 41 -77 110h108q18 -45 48 -93l136 -210l132 210q33 52 47 93h109q-37 -49 -77 -110l-164 -249l186 -282q36 -55 87 -119h-112q-35 69 -55 100zM118 760h91q-8 -45 -8 -113v-534
q0 -68 8 -113h-91q8 47 8 113v534q0 66 -8 113z" />
    <glyph glyph-name="Japan1.7584" unicode="&#x2169;" 
d="M498 348l-165 -246q-36 -56 -60 -102h-114q43 56 89 119l201 283l-177 250q-49 66 -82 108h112q18 -39 56 -95l143 -211l138 211q43 64 55 95h113q-39 -47 -83 -109l-176 -249l200 -281q29 -42 92 -121h-115q-40 69 -62 101z" />
    <glyph glyph-name="Japan1.8225" unicode="&#x216a;" 
d="M381 345l-154 -243q-33 -53 -54 -102h-111q50 65 84 117l187 284l-165 249q-38 57 -77 110h108q20 -49 49 -93l136 -210l132 210q34 57 47 93h108q-37 -49 -77 -110l-163 -249l185 -282q33 -49 87 -119h-111q-34 67 -55 100zM790 760h91q-8 -45 -8 -113v-534
q0 -68 8 -113h-91q8 47 8 113v534q0 66 -8 113z" />
    <glyph glyph-name="Japan1.8226" unicode="&#x216b;" 
d="M126 0h-101q46 67 75 118l168 283l-149 249q-32 54 -69 110h101q14 -42 46 -97l119 -206l116 206q29 53 43 97h103q-30 -42 -70 -111l-147 -249l165 -280q29 -50 79 -120h-105q-15 33 -19 41q-10 17 -15 29q-10 22 -15 30l-137 242l-139 -241q-31 -53 -49 -101zM645 760
h87q-8 -47 -8 -113v-534q0 -68 8 -113h-87q8 49 8 113v534q0 68 -8 113zM843 760h87q-8 -44 -8 -113v-534q0 -66 8 -113h-87q8 49 8 113v534q0 65 -8 113z" />
    <glyph glyph-name="Japan1.8092" unicode="&#x2170;" 
d="M452 760h97v-89h-97v89zM455 539h90q-7 -49 -7 -113v-313q0 -58 7 -113h-90q7 60 7 113v313q0 64 -7 113z" />
    <glyph glyph-name="Japan1.8093" unicode="&#x2171;" 
d="M332 760h97v-89h-97v89zM335 539h90q-7 -49 -7 -113v-313q0 -60 7 -113h-90q7 57 7 112v314q0 61 -7 113zM570 760h97v-89h-97v89zM573 539h90q-7 -49 -7 -113v-313q0 -60 7 -113h-90q7 57 7 112v314q0 61 -7 113z" />
    <glyph glyph-name="Japan1.8094" unicode="&#x2172;" 
d="M223 760h94v-89h-94v89zM226 539h88q-7 -49 -7 -114v-312q0 -57 7 -113h-88q7 63 7 113v313q0 61 -7 113zM453 760h94v-89h-94v89zM456 539h88q-7 -49 -7 -114v-312q0 -57 7 -113h-88q7 63 7 113v313q0 61 -7 113zM684 760h94v-89h-94v89zM686 539h88q-7 -49 -7 -114
v-312q0 -57 7 -113h-88q7 63 7 113v313q0 64 -7 113z" />
    <glyph glyph-name="Japan1.8095" unicode="&#x2173;" 
d="M360 539h93q9 -45 30 -99l110 -290q11 -27 24 -68q9 31 23 68l110 290q24 59 30 99h92q-14 -26 -48 -110l-135 -337q-21 -51 -31 -92h-83q-9 38 -31 92l-135 337q-21 53 -49 110zM194 760h94v-89h-94v89zM197 539h88q-7 -49 -7 -114v-312q0 -57 7 -113h-88q7 63 7 113
v313q0 61 -7 113z" />
    <glyph glyph-name="Japan1.8096" unicode="&#x2174;" 
d="M239 539h94q8 -42 31 -98l114 -294q11 -30 22 -65q11 36 23 64l114 295q23 56 30 98h94q-11 -21 -49 -110l-140 -337q-26 -64 -32 -92h-79q-6 27 -33 92l-139 337q-24 55 -50 110z" />
    <glyph glyph-name="Japan1.8097" unicode="&#x2175;" 
d="M127 539h93q7 -40 30 -99l110 -290q11 -28 24 -68q9 31 23 68l110 290q24 60 30 99h92q-19 -36 -48 -110l-135 -337q-23 -59 -31 -92h-83q-8 34 -31 92l-135 337q-27 65 -49 110zM711 760h94v-89h-94v89zM713 539h88q-7 -49 -7 -114v-312q0 -57 7 -113h-88q7 63 7 113
v313q0 61 -7 113z" />
    <glyph glyph-name="Japan1.8098" unicode="&#x2176;" 
d="M92 539h87q6 -36 27 -99l96 -287l10 -32t7 -24t3 -10q10 34 20 66l98 287q20 61 26 99h87q-27 -66 -43 -110l-121 -337q-23 -64 -31 -92h-72q-9 35 -30 92l-121 337q-18 50 -43 110zM587 760h91v-89h-91v89zM590 539h84q-7 -50 -7 -114v-312q0 -58 7 -113h-84q7 62 7 113
v313q0 61 -7 113zM779 760h91v-89h-91v89zM783 539h84q-7 -50 -7 -114v-312q0 -58 7 -113h-84q7 62 7 113v313q0 63 -7 113z" />
    <glyph glyph-name="Japan1.8099" unicode="&#x2177;" 
d="M363 539h79q-14 -38 -34 -110l-94 -337q-17 -57 -21 -92h-67q-4 22 -23 92l-92 337q-18 64 -35 110h79q8 -47 22 -100l72 -286q6 -31 10 -56q6 42 9 55l75 287q13 51 20 100zM473 760h87v-89h-87v89zM476 539h80q-7 -42 -7 -114v-312q0 -69 7 -113h-80q7 49 7 113v313
q0 71 -7 113zM635 760h87v-89h-87v89zM638 539h80q-7 -41 -7 -114v-312q0 -61 7 -113h-80q7 49 7 113v313q0 71 -7 113zM797 760h87v-89h-87v89zM800 539h80q-7 -46 -7 -114v-312q0 -69 7 -113h-80q7 51 7 113v313q0 67 -7 113z" />
    <glyph glyph-name="Japan1.8100" unicode="&#x2178;" 
d="M563 279l-123 180q-12 17 -59 80h95q14 -30 38 -68l95 -141l95 141q25 38 37 68h94q-39 -53 -59 -83l-122 -177l128 -183q28 -41 69 -96h-96q-20 38 -44 75l-103 153l-107 -162q-22 -33 -38 -66h-97q38 50 64 87zM201 760h94v-89h-94v89zM204 539h88q-7 -49 -7 -114v-312
q0 -57 7 -113h-88q7 63 7 113v313q0 61 -7 113z" />
    <glyph glyph-name="Japan1.8101" unicode="&#x2179;" 
d="M750 0h-99q-16 30 -45 74l-106 153l-111 -162q-16 -22 -39 -65h-99q37 46 65 87l139 192l-129 180q-2 4 -60 80h98q13 -30 39 -67l98 -141l97 141q26 38 39 67h96q-11 -16 -31.5 -43.5t-29.5 -39.5l-126 -177l132 -184q10 -13 72 -95z" />
    <glyph glyph-name="Japan1.8298" unicode="&#x217a;" 
d="M341 279l-124 180q-9 13 -58 80h95q14 -32 38 -68l95 -142l94 142q21 30 37 68h94q-2 -3 -10 -14t-17 -24q-4 -5 -32 -45l-121 -177l127 -183q35 -51 70 -96h-97q-18 36 -43 75l-103 154l-108 -163q-19 -30 -37 -66h-97q46 62 63 87zM702 760h94v-89h-94v89zM704 539h88
q-7 -49 -7 -114v-312q0 -57 7 -113h-88q7 63 7 113v313q0 60 -7 113z" />
    <glyph glyph-name="Japan1.8299" unicode="&#x217b;" 
d="M587 760h91v-89h-91v89zM590 539h84q-7 -50 -7 -114v-312q0 -58 7 -113h-84q7 62 7 113v313q0 61 -7 113zM779 760h91v-89h-91v89zM782 539h84q-7 -50 -7 -114v-312q0 -58 7 -113h-84q7 62 7 113v313q0 63 -7 113zM323 228l-103 -163q-14 -21 -35 -65h-88q17 24 59 87
l124 192l-115 180q-7 10 -26 38t-28 42h85q20 -42 36 -67l91 -142l91 142q21 31 36 67h85q-7 -9 -26 -37q-3 -5 -29 -45l-114 -178l119 -185q12 -18 64 -94h-88q-16 34 -39 72z" />
    <glyph glyph-name="Japan1.7555" unicode="&#x2460;" 
d="M357 628v70q20 -3 71 -4h55q32 0 71 4q-8 -68 -8 -141v-415q0 -51 7 -96h-85q7 48 7 96v491h-44q-37 0 -74 -5zM500 860q130 0 240.5 -64t174.5 -174.5t64 -240.5t-64 -240.5t-174.5 -175t-240.5 -64.5q-97 0 -186 38t-153 102.5t-102 153t-38 186.5q0 97 38 186t102 153
t153 102t186 38zM500 827q-184 0 -315 -130.5t-131 -315.5t130.5 -316t315.5 -131t315.5 131t130.5 316t-131 315.5t-315 130.5z" />
    <glyph glyph-name="Japan1.7556" unicode="&#x2461;" 
d="M625 60h-260q-54 0 -95 -4q11 74 26 110q40 96 131 168q18 16 125 90q53 36 73 64t20 66q0 50 -37 78t-102 28q-85 0 -122 -55q-21 -30 -29 -85l-75 12q19 83 55 123q57 66 171 66q98 0 155.5 -45.5t57.5 -122.5q0 -71 -56 -127q-23 -23 -86 -66q-100 -67 -134 -97
q-67 -60 -86 -140h269q60 0 102 5v-73q-63 5 -103 5zM500 860q130 0 240.5 -64t174.5 -174.5t64 -240.5t-64 -240.5t-174.5 -175t-240.5 -64.5q-97 0 -186 38t-153 102.5t-102 153t-38 186.5q0 97 38 186t102 153t153 102t186 38zM500 827q-184 0 -315 -130.5t-131 -315.5
t130.5 -316t315.5 -131t315.5 131t130.5 316t-131 315.5t-315 130.5z" />
    <glyph glyph-name="Japan1.7557" unicode="&#x2462;" 
d="M260 197l75 17q15 -52 49 -78q43 -31 110 -31q74 0 116.5 34.5t42.5 95.5q0 129 -170 129q-33 0 -70 -4v68q38 -4 61 -4q45 0 87 14q32 11 51 41.5t19 70.5q0 50 -36 79t-97 29q-66 0 -100 -32q-24 -21 -37 -72l-76 17q18 53 41 80q57 67 176 67q94 0 148.5 -44.5
t54.5 -121.5q0 -85 -60 -127q-30 -21 -84 -29q71 -7 108 -36q58 -44 58 -131q0 -86 -62 -136t-169 -50q-128 0 -192 70q-24 25 -44 84zM500 860q130 0 240.5 -64t174.5 -174.5t64 -240.5t-64 -240.5t-174.5 -175t-240.5 -64.5q-97 0 -186 38t-153 102.5t-102 153t-38 186.5
q0 97 38 186t102 153t153 102t186 38zM500 827q-184 0 -315 -130.5t-131 -315.5t130.5 -316t315.5 -131t315.5 131t130.5 316t-131 315.5t-315 130.5z" />
    <glyph glyph-name="Japan1.7558" unicode="&#x2463;" 
d="M213 215v68q31 33 56 65l215 269q37 47 63 87h70q-5 -59 -5 -144v-279h31q58 0 90 6v-74q-48 6 -89 6h-32v-73q0 -56 6 -92h-80q7 45 7 92v73h-228q-68 0 -104 -4zM545 280v215q0 61 4 113q-25 -37 -58 -78l-198 -250h252zM500 860q130 0 240.5 -64t174.5 -174.5
t64 -240.5t-64 -240.5t-174.5 -175t-240.5 -64.5q-97 0 -186 38t-153 102.5t-102 153t-38 186.5q0 97 38 186t102 153t153 102t186 38zM500 827q-184 0 -315 -130.5t-131 -315.5t130.5 -316t315.5 -131t315.5 131t130.5 316t-131 315.5t-315 130.5z" />
    <glyph glyph-name="Japan1.7559" unicode="&#x2464;" 
d="M362 325l-66 5q8 39 13 87l18 199q3 31 3 55q0 9 -3 29q31 -5 93 -5h174q62 0 101 7v-74q-36 6 -100 6h-198l-18 -176q-1 -21 -8 -48q57 60 149 60q93 0 154 -58q57 -57 57 -152q0 -103 -63 -164.5t-167 -61.5q-101 0 -165 59q-28 26 -55 81l72 21q11 -29 26 -49
q45 -50 123 -50q71 0 114 44t43 117t-41 113.5t-114 40.5t-121 -51q-9 -11 -21 -35zM500 860q130 0 240.5 -64t174.5 -174.5t64 -240.5t-64 -240.5t-174.5 -175t-240.5 -64.5q-97 0 -186 38t-153 102.5t-102 153t-38 186.5q0 97 38 186t102 153t153 102t186 38zM500 827
q-184 0 -315 -130.5t-131 -315.5t130.5 -316t315.5 -131t315.5 131t130.5 316t-131 315.5t-315 130.5z" />
    <glyph glyph-name="Japan1.7560" unicode="&#x2465;" 
d="M713 584l-70 -22q-13 34 -29 53q-39 42 -102 42q-84 0 -131 -78q-23 -38 -33.5 -84t-14.5 -126q19 34 40 54q60 54 147 54q97 0 155 -58.5t58 -156.5q0 -99 -62.5 -160t-163.5 -61q-115 0 -180 83q-63 81 -63 238q0 110 33 201q17 46 51 83t76 54q40 17 92 17
q89 0 145 -54q26 -25 52 -79zM511 417q-71 0 -117.5 -44t-46.5 -111q0 -68 46 -114t115 -46q42 0 78 18.5t55 50.5q22 35 22 91q0 72 -40.5 113.5t-111.5 41.5zM500 860q130 0 240.5 -64t174.5 -174.5t64 -240.5t-64 -240.5t-174.5 -175t-240.5 -64.5q-97 0 -186 38
t-153 102.5t-102 153t-38 186.5q0 97 38 186t102 153t153 102t186 38zM500 827q-184 0 -315 -130.5t-131 -315.5t130.5 -316t315.5 -131t315.5 131t130.5 316t-131 315.5t-315 130.5z" />
    <glyph glyph-name="Japan1.7561" unicode="&#x2466;" 
d="M729 681v-64q-22 -18 -84 -113q-64 -98 -109 -219q-43 -117 -60 -257h-85q26 176 94 322q62 131 162 263h-274q-62 0 -97 -6v75q44 -6 98 -6h256q64 0 99 5zM500 860q130 0 240.5 -64t174.5 -174.5t64 -240.5t-64 -240.5t-174.5 -175t-240.5 -64.5q-97 0 -186 38
t-153 102.5t-102 153t-38 186.5q0 97 38 186t102 153t153 102t186 38zM500 827q-184 0 -315 -130.5t-131 -315.5t130.5 -316t315.5 -131t315.5 131t130.5 316t-131 315.5t-315 130.5z" />
    <glyph glyph-name="Japan1.7562" unicode="&#x2467;" 
d="M413 393q-57 10 -90.5 52t-33.5 102q0 92 81 140q52 29 131 29q97 0 154.5 -45.5t57.5 -122.5q0 -61 -33.5 -102.5t-90.5 -52.5q57 -10 94 -40q59 -50 59 -129q0 -103 -82 -150q-59 -35 -158 -35q-109 0 -170 42q-71 49 -71 143q0 85 68 136q35 25 84 33zM501 656
q-61 0 -100 -29q-42 -29 -42 -86q0 -56 38 -88t104 -32t104 32.5t38 88.5q0 52 -39 83t-103 31zM503 360q-79 0 -124 -35.5t-45 -97.5q0 -61 43.5 -94t123.5 -33t124 33t44 94t-44.5 97t-121.5 36zM500 860q130 0 240.5 -64t174.5 -174.5t64 -240.5t-64 -240.5t-174.5 -175
t-240.5 -64.5q-97 0 -186 38t-153 102.5t-102 153t-38 186.5q0 97 38 186t102 153t153 102t186 38zM500 827q-184 0 -315 -130.5t-131 -315.5t130.5 -316t315.5 -131t315.5 131t130.5 316t-131 315.5t-315 130.5z" />
    <glyph glyph-name="Japan1.7563" unicode="&#x2468;" 
d="M290 173l71 22q16 -36 32 -54q37 -39 104 -39q89 0 135 76q25 39 37 109q4 25 7 99q-22 -44 -70 -75q-50 -32 -118 -32q-94 0 -152.5 58t-58.5 152q0 81 39 136q66 90 190 90q106 0 167 -70q72 -81 72 -253q0 -74 -15 -140.5t-40 -105.5q-67 -106 -196 -106
q-96 0 -152 54q-26 25 -52 79zM500 339q70 0 116.5 44t46.5 111q0 69 -45 114.5t-114 45.5q-42 0 -78 -19t-56 -52q-22 -35 -22 -87q0 -74 40.5 -115.5t111.5 -41.5zM500 860q130 0 240.5 -64t174.5 -174.5t64 -240.5t-64 -240.5t-174.5 -175t-240.5 -64.5q-97 0 -186 38
t-153 102.5t-102 153t-38 186.5q0 97 38 186t102 153t153 102t186 38zM500 827q-184 0 -315 -130.5t-131 -315.5t130.5 -316t315.5 -131t315.5 131t130.5 316t-131 315.5t-315 130.5z" />
    <glyph glyph-name="Japan1.7564" unicode="&#x2469;" 
d="M196 629v69q25 -4 61 -4h27q44 0 68 4q-7 -66 -7 -151v-378q0 -59 7 -104h-81q7 43 7 104v465h-22q-36 0 -60 -5zM636 53q-86 0 -130.5 82.5t-44.5 243.5q0 159 44.5 242.5t129.5 83.5q86 0 131.5 -83t45.5 -243q0 -159 -45 -242.5t-131 -83.5zM636 644q-106 0 -106 -264
q0 -265 103 -265q110 0 110 266q0 263 -107 263zM500 860q130 0 240.5 -64t174.5 -174.5t64 -240.5t-64 -240.5t-174.5 -175t-240.5 -64.5q-97 0 -186 38t-153 102.5t-102 153t-38 186.5q0 97 38 186t102 153t153 102t186 38zM500 827q-184 0 -315 -130.5t-131 -315.5
t130.5 -316t315.5 -131t315.5 131t130.5 316t-131 315.5t-315 130.5z" />
    <glyph glyph-name="Japan1.7565" unicode="&#x246a;" 
d="M217 629v69q27 -4 61 -4h43q43 0 68 4q-7 -63 -7 -151v-378q0 -62 7 -104h-81q7 43 7 104v465h-38q-37 0 -60 -5zM551 629v69q27 -4 61 -4h47q43 0 68 4q-7 -66 -7 -151v-378q0 -62 7 -104h-81q7 43 7 104v465h-42q-37 0 -60 -5zM500 860q130 0 240.5 -64t174.5 -174.5
t64 -240.5t-64 -240.5t-174.5 -175t-240.5 -64.5q-97 0 -186 38t-153 102.5t-102 153t-38 186.5q0 97 38 186t102 153t153 102t186 38zM500 827q-184 0 -315 -130.5t-131 -315.5t130.5 -316t315.5 -131t315.5 131t130.5 316t-131 315.5t-315 130.5z" />
    <glyph glyph-name="Japan1.7566" unicode="&#x246b;" 
d="M197 631v69q24 -4 60 -4h27q44 0 67 4q-6 -77 -6 -151v-378q0 -59 7 -104h-81q7 41 7 104v465h-22q-35 0 -59 -5zM547 515l-69 9q17 95 50 135q42 49 113 49q72 0 113 -44t41 -121q0 -54 -20.5 -93.5t-72.5 -87.5q-80 -74 -110.5 -121.5t-40.5 -114.5h162q54 0 80 5v-68
q-32 4 -82 4h-159q-47 0 -80 -3q1 6 8 53q11 107 81 191q32 37 95 99q29 29 40 42t19 32q12 28 12 64q0 47 -23.5 75t-62.5 28q-42 0 -66 -36q-19 -27 -28 -97zM500 860q130 0 240.5 -64t174.5 -174.5t64 -240.5t-64 -240.5t-174.5 -175t-240.5 -64.5q-97 0 -186 38
t-153 102.5t-102 153t-38 186.5q0 97 38 186t102 153t153 102t186 38zM500 827q-184 0 -315 -130.5t-131 -315.5t130.5 -316t315.5 -131t315.5 131t130.5 316t-131 315.5t-315 130.5z" />
    <glyph glyph-name="Japan1.7567" unicode="&#x246c;" 
d="M197 631v69q24 -4 61 -4h27q44 0 68 4q-7 -63 -7 -151v-378q0 -62 7 -104h-81q7 43 7 104v465h-22q-36 0 -60 -5zM570 365v66q19 -4 42 -4q53 0 81.5 30.5t28.5 88.5q0 49 -24 76.5t-65 27.5q-39 0 -59 -22.5t-31 -77.5l-67 14q15 65 49 102q44 42 114 42t110 -42.5
t40 -115.5q0 -86 -52 -127q-24 -18 -56 -23q45 -6 72 -27q54 -42 54 -135q0 -85 -46.5 -134.5t-126.5 -49.5q-93 0 -139 61q-23 30 -38 90l68 17q10 -48 27 -70q28 -39 80 -39q49 0 78 35.5t29 94.5q0 61 -31 93.5t-89 32.5q-21 0 -49 -4zM500 860q130 0 240.5 -64
t174.5 -174.5t64 -240.5t-64 -240.5t-174.5 -175t-240.5 -64.5q-97 0 -186 38t-153 102.5t-102 153t-38 186.5q0 97 38 186t102 153t153 102t186 38zM500 827q-184 0 -315 -130.5t-131 -315.5t130.5 -316t315.5 -131t315.5 131t130.5 316t-131 315.5t-315 130.5z" />
    <glyph glyph-name="Japan1.7568" unicode="&#x246d;" 
d="M197 629v69q24 -4 61 -4h27q44 0 68 4q-7 -69 -7 -151v-378q0 -61 7 -104h-81q7 43 7 104v465h-22q-36 0 -60 -5zM669 694h74q-4 -61 -4 -141v-273h18q36 0 60 4v-66q-23 3 -61 3h-17v-66q0 -49 5 -90h-73q6 46 6 89v67h-158q-47 0 -79 -3l-2 64q12 19 38 64l151 263
q17 27 42 85zM677 280v208q0 48 3 105q-14 -33 -39 -76l-133 -237h169zM500 860q130 0 240.5 -64t174.5 -174.5t64 -240.5t-64 -240.5t-174.5 -175t-240.5 -64.5q-97 0 -186 38t-153 102.5t-102 153t-38 186.5q0 97 38 186t102 153t153 102t186 38zM500 827
q-184 0 -315 -130.5t-131 -315.5t130.5 -316t315.5 -131t315.5 131t130.5 316t-131 315.5t-315 130.5z" />
    <glyph glyph-name="Japan1.7569" unicode="&#x246e;" 
d="M198 629v69q23 -4 61 -4h27q44 0 68 4q-7 -70 -7 -151v-378q0 -59 7 -104h-81q7 43 7 104v465h-22q-36 0 -60 -5zM563 635l-13 -178q-2 -18 -5 -36q41 56 105 56q73 0 116.5 -55.5t43.5 -148.5q0 -101 -48 -160.5t-129 -59.5q-77 0 -121 49q-22 25 -47 87l68 19
q9 -38 22 -56q29 -38 77 -38q49 0 78.5 42.5t29.5 112.5t-27 109.5t-74 39.5q-51 0 -82 -42q-12 -14 -18 -38l-64 5q6 35 10 80l14 195q2 34 2 54q0 13 -1 26q29 -4 70 -4h122q64 0 89 5v-69q-26 5 -89 5h-129zM500 860q130 0 240.5 -64t174.5 -174.5t64 -240.5t-64 -240.5
t-174.5 -175t-240.5 -64.5q-97 0 -186 38t-153 102.5t-102 153t-38 186.5q0 97 38 186t102 153t153 102t186 38zM500 827q-184 0 -315 -130.5t-131 -315.5t130.5 -316t315.5 -131t315.5 131t130.5 316t-131 315.5t-315 130.5z" />
    <glyph glyph-name="Japan1.7570" unicode="&#x246f;" 
d="M198 629v69q24 -4 61 -4h27q44 0 68 4q-7 -70 -7 -151v-378q0 -59 7 -104h-81q7 43 7 104v465h-22q-36 0 -60 -5zM799 576l-67 -18q-11 41 -25 59q-23 31 -61 31q-47 0 -76 -51q-37 -67 -43 -216q14 36 33 56q41 41 97 41q71 0 111.5 -57t40.5 -157q0 -94 -47.5 -152.5
t-122.5 -58.5q-108 0 -152 124q-25 68 -25 201q0 169 62 259q48 69 125 69q66 0 106 -45q25 -27 44 -85zM645 421q-38 0 -67 -31q-42 -42 -42 -122q0 -68 29.5 -112t75.5 -44q47 0 75 43t28 114t-26.5 111.5t-72.5 40.5zM500 860q130 0 240.5 -64t174.5 -174.5t64 -240.5
t-64 -240.5t-174.5 -175t-240.5 -64.5q-97 0 -186 38t-153 102.5t-102 153t-38 186.5q0 97 38 186t102 153t153 102t186 38zM500 827q-184 0 -315 -130.5t-131 -315.5t130.5 -316t315.5 -131t315.5 131t130.5 316t-131 315.5t-315 130.5z" />
    <glyph glyph-name="Japan1.7571" unicode="&#x2470;" 
d="M201 628v69q27 -4 61 -4h35q43 0 68 4q-7 -69 -7 -151v-378q0 -61 7 -104h-81q7 45 7 104v465h-30q-35 0 -60 -5zM616 64h-77q17 156 58.5 286.5t121.5 282.5h-174q-43 0 -77 -6v71q30 -5 78 -5h169q48 0 78 3v-60q-20 -25 -51.5 -91.5t-56.5 -137.5q-54 -151 -69 -343z
M500 860q130 0 240.5 -64t174.5 -174.5t64 -240.5t-64 -240.5t-174.5 -175t-240.5 -64.5q-97 0 -186 38t-153 102.5t-102 153t-38 186.5q0 97 38 186t102 153t153 102t186 38zM500 827q-184 0 -315 -130.5t-131 -315.5t130.5 -316t315.5 -131t315.5 131t130.5 316
t-131 315.5t-315 130.5z" />
    <glyph glyph-name="Japan1.7572" unicode="&#x2471;" 
d="M196 629v69q24 -4 61 -4h27q44 0 67 4q-6 -72 -6 -151v-378q0 -61 7 -104h-81q7 43 7 104v465h-22q-36 0 -60 -5zM562 396q-25 7 -39 19q-50 44 -50 128q0 75 42.5 118.5t116.5 43.5q73 0 115 -43.5t42 -118.5q0 -85 -50 -127q-14 -12 -39 -20q43 -12 66 -38
q45 -48 45 -126q0 -83 -48.5 -130.5t-133.5 -47.5q-83 0 -131 47t-48 129q0 79 46 128q25 27 66 38zM632 647q-53 0 -79 -45q-14 -23 -14 -67q0 -52 25 -82t68 -30t68 30t25 82q0 55 -27 84q-26 28 -66 28zM632 366q-53 0 -82 -34.5t-29 -95.5q0 -59 28.5 -91t81.5 -32
t82 32.5t29 92.5t-29.5 94t-80.5 34zM500 860q130 0 240.5 -64t174.5 -174.5t64 -240.5t-64 -240.5t-174.5 -175t-240.5 -64.5q-97 0 -186 38t-153 102.5t-102 153t-38 186.5q0 97 38 186t102 153t153 102t186 38zM500 827q-184 0 -315 -130.5t-131 -315.5t130.5 -316
t315.5 -131t315.5 131t130.5 316t-131 315.5t-315 130.5z" />
    <glyph glyph-name="Japan1.7573" unicode="&#x2472;" 
d="M196 631v69q29 -4 61 -4h27q44 0 68 4q-7 -69 -7 -151v-378q0 -61 7 -104h-81q7 43 7 104v465h-22q-36 0 -60 -5zM473 185l68 19q10 -41 25 -61q23 -31 62 -31q62 0 91 84q20 57 26 184q-16 -40 -36 -58q-39 -39 -94 -39q-70 0 -111.5 56.5t-41.5 153.5t47 156t123 59
q107 0 152 -121q25 -71 25 -204q0 -168 -55 -256q-45 -72 -130 -72q-66 0 -107 45q-25 27 -44 85zM627 340q38 0 67 31q41 43 41 122q0 67 -30 111.5t-74 44.5q-46 0 -74 -43t-28 -115q0 -70 26 -110.5t72 -40.5zM500 860q130 0 240.5 -64t174.5 -174.5t64 -240.5
t-64 -240.5t-174.5 -175t-240.5 -64.5q-97 0 -186 38t-153 102.5t-102 153t-38 186.5q0 97 38 186t102 153t153 102t186 38zM500 827q-184 0 -315 -130.5t-131 -315.5t130.5 -316t315.5 -131t315.5 131t130.5 316t-131 315.5t-315 130.5z" />
    <glyph glyph-name="Japan1.7574" unicode="&#x2473;" 
d="M688 54q-171 0 -171 329q0 157 44 239.5t127 82.5q85 0 129 -83t44 -243q0 -158 -44 -241.5t-129 -83.5zM688 645q-104 0 -104 -264q0 -266 103 -266q107 0 107 265t-106 265zM501 859q130 0 240.5 -64t174.5 -174.5t64 -240.5t-64 -240.5t-174.5 -174.5t-240.5 -64
q-98 0 -186.5 38t-153 102t-102.5 153t-38 186t38 186t102.5 153t153 102t186.5 38zM400 65h-158q-31 0 -57 -1q134 -131 316 -131q185 0 316 131t131 316t-131 315.5t-316 130.5t-316 -130.5t-131 -315.5q0 -167 113 -297q1 8 4 33q12 110 93 203q7 9 44 48q26 26 45 46
q27 28 39 47q21 36 21 82q0 47 -23.5 75.5t-62.5 28.5q-43 0 -67 -37q-18 -27 -26 -97l-67 9q17 95 55.5 139.5t105.5 44.5q70 0 110 -44t40 -121q0 -54 -20 -93.5t-72 -88.5q-80 -76 -109 -122t-40 -112h165q53 0 78 5v-68q-31 4 -80 4z" />
    <glyph glyph-name="Japan1.8071" unicode="&#x2474;" 
d="M179 -86l-35 -16q-34 65 -50 104q-74 181 -74 378q0 199 74 378q16 38 50 105l35 -16q-34 -60 -49 -99q-72 -170 -72 -368q0 -197 72 -367q15 -39 49 -99zM857 -102l-35 16q34 60 49 99q72 170 72 367t-72 368q-15 39 -49 99l35 16q34 -67 50 -105q74 -181 74 -378
t-74 -378q-16 -39 -50 -104zM343 686v79q32 -5 82 -5h63q42 0 83 5q-9 -92 -9 -166v-486q0 -64 8 -113h-95q8 47 8 113v579h-54q-43 0 -86 -6z" />
    <glyph glyph-name="Japan1.8072" unicode="&#x2475;" 
d="M179 -86l-35 -16q-34 65 -50 104q-74 181 -74 378q0 199 74 378q16 38 50 105l35 -16q-34 -60 -49 -99q-72 -170 -72 -368q0 -197 72 -367q15 -39 49 -99zM857 -102l-35 16q34 60 49 99q72 170 72 367t-72 368q-15 39 -49 99l35 16q34 -67 50 -105q74 -181 74 -378
t-74 -378q-16 -39 -50 -104zM635 0h-304q-73 0 -110 -6q13 92 29 133q36 92 130 172q33 28 153 110q74 50 103 88t29 84q0 57 -45 91t-121 34q-100 0 -145 -65q-26 -37 -35 -101l-84 15q20 95 63 143q68 77 201 77q113 0 180.5 -52.5t67.5 -141.5q0 -77 -59 -142
q-22 -25 -52.5 -48t-117.5 -81q-100 -67 -144 -123q-42 -55 -57 -116h319q69 0 122 7v-84q-60 6 -123 6z" />
    <glyph glyph-name="Japan1.8073" unicode="&#x2476;" 
d="M213 164l84 20q12 -38 25 -57.5t36 -36.5q51 -36 129 -36q87 0 138 42t51 113q0 75 -52 114t-152 39q-35 0 -80 -5v78q38 -5 74 -5q100 0 146 46q40 38 40 97q0 64 -42.5 100t-118.5 36q-92 0 -133 -53q-18 -23 -32 -71l-83 18q22 67 54 100q67 73 199 73q109 0 173 -53
t64 -143q0 -97 -70 -146q-33 -24 -94 -36q77 -8 123 -43q67 -52 67 -151q0 -101 -73 -160t-198 -59q-152 0 -224 82q-28 32 -51 97zM179 -86l-35 -16q-34 65 -50 104q-74 181 -74 378q0 199 74 378q16 38 50 105l35 -16q-34 -60 -49 -99q-72 -170 -72 -368q0 -197 72 -367
q15 -39 49 -99zM857 -102l-35 16q34 60 49 99q72 170 72 367t-72 368q-15 39 -49 99l35 16q34 -67 50 -105q74 -181 74 -378t-74 -378q-16 -39 -50 -104z" />
    <glyph glyph-name="Japan1.8074" unicode="&#x2477;" 
d="M190 190v75q8 9 65 77l252 316q42 52 75 102h75q-6 -71 -6 -169v-328h38q53 0 105 7v-83q-52 7 -106 7h-37v-86q0 -59 8 -108h-91q8 47 8 108v86h-267q-75 0 -119 -4zM577 262v254q0 75 6 136q-28 -40 -75 -100l-229 -290h298zM179 -86l-35 -16q-34 65 -50 104
q-74 181 -74 378q0 199 74 378q16 38 50 105l35 -16q-34 -60 -49 -99q-72 -170 -72 -368q0 -197 72 -367q15 -39 49 -99zM857 -102l-35 16q34 60 49 99q72 170 72 367t-72 368q-15 39 -49 99l35 16q34 -67 50 -105q74 -181 74 -378t-74 -378q-16 -39 -50 -104z" />
    <glyph glyph-name="Japan1.8075" unicode="&#x2478;" 
d="M179 -86l-35 -16q-34 65 -50 104q-74 181 -74 378q0 199 74 378q16 38 50 105l35 -16q-34 -60 -49 -99q-72 -170 -72 -368q0 -197 72 -367q15 -39 49 -99zM857 -102l-35 16q34 60 49 99q72 170 72 367t-72 368q-15 39 -49 99l35 16q34 -67 50 -105q74 -181 74 -378
t-74 -378q-16 -39 -50 -104zM369 691l-21 -221q-2 -18 -8 -45q72 69 175 69q110 0 180 -68q67 -66 67 -177q0 -121 -73 -192.5t-197 -71.5q-119 0 -191 69q-32 30 -63 93l82 25q14 -38 32 -59q53 -59 142 -59q84 0 135.5 52.5t51.5 138.5q0 83 -47.5 133t-127.5 50
q-77 0 -131 -42q-32 -25 -46 -60l-75 7q10 49 15 103l22 226q3 44 3 60q0 18 -2 43q39 -5 106 -5h206q64 0 117 8v-85q-51 8 -117 8h-235z" />
    <glyph glyph-name="Japan1.8076" unicode="&#x2479;" 
d="M179 -86l-35 -16q-34 65 -50 104q-74 181 -74 378q0 199 74 378q16 38 50 105l35 -16q-34 -60 -49 -99q-72 -170 -72 -368q0 -197 72 -367q15 -39 49 -99zM857 -102l-35 16q34 60 49 99q72 170 72 367t-72 368q-15 39 -49 99l35 16q34 -67 50 -105q74 -181 74 -378
t-74 -378q-16 -39 -50 -104zM743 620l-80 -26q-18 43 -35 63q-44 50 -119 50q-118 0 -173 -124q-20 -45 -28.5 -89t-13.5 -126q24 42 50 64q70 61 169 61q116 0 183.5 -67.5t67.5 -183.5t-72 -186.5t-190 -70.5q-113 0 -181 63q-101 93 -101 314q0 200 76 303
q80 109 211 109q93 0 152 -42q26 -19 44 -43t40 -69zM503 53q49 0 91 22t65 59q26 44 26 107q0 89 -47.5 137t-135.5 48q-81 0 -138 -57q-50 -50 -50 -127q0 -81 54 -135t135 -54z" />
    <glyph glyph-name="Japan1.8077" unicode="&#x247a;" 
d="M179 -86l-35 -16q-34 65 -50 104q-74 181 -74 378q0 199 74 378q16 38 50 105l35 -16q-34 -60 -49 -99q-72 -170 -72 -368q0 -197 72 -367q15 -39 49 -99zM857 -102l-35 16q34 60 49 99q72 170 72 367t-72 368q-15 39 -49 99l35 16q34 -67 50 -105q74 -181 74 -378
t-74 -378q-16 -39 -50 -104zM775 742v-73q-23 -18 -74 -96q-67 -104 -104.5 -179t-66.5 -167q-33 -106 -53 -250h-95q24 136 49.5 219.5t71.5 179.5q36 75 74.5 137t105.5 153h-325q-60 0 -113 -7v85q55 -7 114 -7h300q72 0 116 5z" />
    <glyph glyph-name="Japan1.8078" unicode="&#x247b;" 
d="M179 -86l-35 -16q-34 65 -50 104q-74 181 -74 378q0 199 74 378q16 38 50 105l35 -16q-34 -60 -49 -99q-72 -170 -72 -368q0 -197 72 -367q15 -39 49 -99zM857 -102l-35 16q34 60 49 99q72 170 72 367t-72 368q-15 39 -49 99l35 16q34 -67 50 -105q74 -181 74 -378
t-74 -378q-16 -39 -50 -104zM601 398q57 -8 103 -43q75 -57 75 -157q0 -103 -72 -158.5t-204 -55.5q-137 0 -210.5 55.5t-73.5 158.5q0 108 88 165q39 27 91 35q-67 12 -106.5 61t-39.5 118q0 92 66.5 145.5t179.5 53.5q115 0 181 -53t66 -145q0 -70 -39 -118.5t-105 -61.5z
M498 709q-76 0 -122 -37.5t-46 -99.5q0 -67 45 -105t124 -38t123.5 38t44.5 105q0 63 -46 100t-123 37zM499 360q-92 0 -145 -42t-53 -115q0 -71 52 -111t145 -40q109 0 161 52q38 35 38 99q0 73 -53 115t-145 42z" />
    <glyph glyph-name="Japan1.8079" unicode="&#x247c;" 
d="M179 -86l-35 -16q-34 65 -50 104q-74 181 -74 378q0 199 74 378q16 38 50 105l35 -16q-34 -60 -49 -99q-72 -170 -72 -368q0 -197 72 -367q15 -39 49 -99zM857 -102l-35 16q34 60 49 99q72 170 72 367t-72 368q-15 39 -49 99l35 16q34 -67 50 -105q74 -181 74 -378
t-74 -378q-16 -39 -50 -104zM236 140l82 26q16 -44 36 -65q42 -47 126 -47q107 0 161 92q30 53 43 129q6 34 9 116q-17 -33 -40 -55q-74 -70 -182 -70q-114 0 -180 66q-68 68 -68 180q0 119 74 191t197 72q84 0 149 -45t93 -124q29 -78 29 -211q0 -213 -83 -316
q-74 -93 -208 -93q-104 0 -168 54q-37 32 -70 100zM480 333q83 0 138.5 53t55.5 132q0 81 -53.5 135t-133.5 54q-50 0 -92 -22.5t-67 -62.5q-26 -42 -26 -105q0 -85 48 -134.5t130 -49.5z" />
    <glyph glyph-name="Japan1.8080" unicode="&#x247d;" 
d="M159 689v75q25 -4 65 -4h30q47 0 72 4q-7 -71 -7 -161v-490q0 -67 7 -113h-85q7 48 7 113v581h-28q-37 0 -61 -5zM646 -15q-94 0 -142.5 100t-48.5 294t49 294.5t143 100.5q96 0 145.5 -100t49.5 -295q0 -238 -77 -336q-45 -58 -119 -58zM648 708q-121 0 -121 -325
q0 -330 121 -330q62 0 92 80.5t30 249.5q0 325 -122 325zM179 -86l-35 -16q-34 65 -50 104q-74 181 -74 378q0 199 74 378q16 38 50 105l35 -16q-34 -60 -49 -99q-72 -170 -72 -368q0 -197 72 -367q15 -39 49 -99zM857 -102l-35 16q34 60 49 99q72 170 72 367t-72 368
q-15 39 -49 99l35 16q34 -67 50 -105q74 -181 74 -378t-74 -378q-16 -39 -50 -104z" />
    <glyph glyph-name="Japan1.8081" unicode="&#x247e;" 
d="M193 689v76q28 -5 71 -5h41q47 0 74 4q-7 -71 -7 -161v-490q0 -65 7 -113h-87q7 48 7 113v581h-41q-39 0 -65 -5zM556 690v74q29 -4 70 -4h45q47 0 74 4q-7 -69 -7 -161v-489q0 -68 7 -114h-87q7 49 7 114v581h-42q-37 0 -67 -5zM179 -86l-35 -16q-34 65 -50 104
q-74 181 -74 378q0 199 74 378q16 38 50 105l35 -16q-34 -60 -49 -99q-72 -170 -72 -368q0 -197 72 -367q15 -39 49 -99zM857 -102l-35 16q34 60 49 99q72 170 72 367t-72 368q-15 39 -49 99l35 16q34 -67 50 -105q74 -181 74 -378t-74 -378q-16 -39 -50 -104z" />
    <glyph glyph-name="Japan1.8082" unicode="&#x247f;" 
d="M730 0h-181q-53 0 -95 -3q3 20 6 49q14 118 87 221q28 39 138 156q43 46 58 78q16 37 16 83q0 56 -29 90t-76 34q-59 0 -86 -50q-20 -36 -28 -118l-74 12q13 98 44 148q47 75 143 75q83 0 130.5 -53t47.5 -144q0 -92 -60 -165q-23 -29 -94 -100q-64 -65 -95 -120
t-44 -127h193q63 0 97 6v-76q-39 4 -98 4zM179 -86l-35 -16q-34 65 -50 104q-74 181 -74 378q0 199 74 378q16 38 50 105l35 -16q-34 -60 -49 -99q-72 -170 -72 -368q0 -197 72 -367q15 -39 49 -99zM857 -102l-35 16q34 60 49 99q72 170 72 367t-72 368q-15 39 -49 99l35 16
q34 -67 50 -105q74 -181 74 -378t-74 -378q-16 -39 -50 -104zM159 689v75q25 -4 65 -4h30q47 0 72 4q-7 -71 -7 -161v-490q0 -67 7 -113h-85q7 48 7 113v581h-28q-37 0 -61 -5z" />
    <glyph glyph-name="Japan1.8083" unicode="&#x2480;" 
d="M437 166l72 19q13 -69 38 -98q29 -35 80 -35q54 0 86 42.5t32 114.5q0 91 -41 127q-35 32 -91 32q-27 0 -51 -6v75q22 -5 45 -5q55 0 87 39.5t32 108.5q0 61 -26 96t-72 35q-42 0 -65.5 -29t-33.5 -95l-71 16q19 86 52 123q44 50 121 50q76 0 120.5 -52t44.5 -140
q0 -153 -115 -181q45 -6 77 -34q58 -50 58 -160q0 -105 -50 -164.5t-139 -59.5q-105 0 -154 81q-22 38 -36 100zM179 -86l-35 -16q-34 65 -50 104q-74 181 -74 378q0 199 74 378q16 38 50 105l35 -16q-34 -60 -49 -99q-72 -170 -72 -368q0 -197 72 -367q15 -39 49 -99z
M857 -102l-35 16q34 60 49 99q72 170 72 367t-72 368q-15 39 -49 99l35 16q34 -67 50 -105q74 -181 74 -378t-74 -378q-16 -39 -50 -104zM159 689v75q25 -4 65 -4h30q47 0 72 4q-7 -71 -7 -161v-490q0 -67 7 -113h-85q7 48 7 113v581h-28q-37 0 -61 -5z" />
    <glyph glyph-name="Japan1.8084" unicode="&#x2481;" 
d="M685 760h73q-5 -69 -5 -169v-334h19q51 0 78 5v-72q-22 3 -80 3h-17v-84q0 -53 6 -109h-77q6 60 6 108v85h-187q-55 0 -86 -4v73q18 27 45 77l177 318q24 42 48 103zM688 257v251q0 42 5 128q-14 -32 -45 -90l-159 -289h199zM179 -86l-35 -16q-34 65 -50 104
q-74 181 -74 378q0 199 74 378q16 38 50 105l35 -16q-34 -60 -49 -99q-72 -170 -72 -368q0 -197 72 -367q15 -39 49 -99zM857 -102l-35 16q34 60 49 99q72 170 72 367t-72 368q-15 39 -49 99l35 16q34 -67 50 -105q74 -181 74 -378t-74 -378q-16 -39 -50 -104zM159 689v75
q25 -4 65 -4h30q47 0 72 4q-7 -71 -7 -161v-490q0 -67 7 -113h-85q7 48 7 113v581h-28q-37 0 -61 -5z" />
    <glyph glyph-name="Japan1.8085" unicode="&#x2482;" 
d="M554 694l-15 -216q-1 -27 -5 -45q14 20 27 32q37 31 91 31q79 0 127.5 -67.5t48.5 -177.5q0 -123 -52 -194.5t-142 -71.5t-143 70q-24 32 -44 95l70 23q13 -51 31 -77q31 -44 85 -44q56 0 90 53t34 141t-30.5 136.5t-85.5 48.5q-54 0 -90 -44q-16 -20 -28 -58l-66 7
q8 44 12 104l16 224q3 40 3 81q0 10 -1 18q44 -3 94 -3h131q62 0 88 6v-78q-33 6 -88 6h-158zM179 -86l-35 -16q-34 65 -50 104q-74 181 -74 378q0 199 74 378q16 38 50 105l35 -16q-34 -60 -49 -99q-72 -170 -72 -368q0 -197 72 -367q15 -39 49 -99zM857 -102l-35 16
q34 60 49 99q72 170 72 367t-72 368q-15 39 -49 99l35 16q34 -67 50 -105q74 -181 74 -378t-74 -378q-16 -39 -50 -104zM161 689v75q25 -4 65 -4h30q47 0 72 4q-7 -71 -7 -161v-490q0 -67 7 -113h-85q7 48 7 113v581h-28q-37 0 -61 -5z" />
    <glyph glyph-name="Japan1.8086" unicode="&#x2483;" 
d="M824 620l-70 -24q-15 57 -32 80q-23 34 -63 34q-58 0 -89 -66q-40 -80 -51 -260q17 41 40 67q43 46 106 46q79 0 125 -67.5t46 -184.5q0 -116 -51.5 -188t-134.5 -72q-98 0 -150 100q-46 91 -46 278q0 200 53.5 306t154.5 106q83 0 127 -71q20 -31 35 -84zM654 431
q-63 0 -100 -73q-22 -45 -22 -114q0 -86 32.5 -139t85.5 -53q52 0 85 51.5t33 133.5q0 94 -29.5 144t-84.5 50zM179 -86l-35 -16q-34 65 -50 104q-74 181 -74 378q0 199 74 378q16 38 50 105l35 -16q-34 -60 -49 -99q-72 -170 -72 -368q0 -197 72 -367q15 -39 49 -99z
M857 -102l-35 16q34 60 49 99q72 170 72 367t-72 368q-15 39 -49 99l35 16q34 -67 50 -105q74 -181 74 -378t-74 -378q-16 -39 -50 -104zM159 689v75q25 -4 65 -4h30q47 0 72 4q-7 -71 -7 -161v-490q0 -67 7 -113h-85q7 48 7 113v581h-28q-37 0 -61 -5z" />
    <glyph glyph-name="Japan1.8087" unicode="&#x2484;" 
d="M622 -10h-83q23 191 61 321q28 94 60.5 172t94.5 200h-216q-54 0 -92 -7v80q39 -6 93 -6h202q60 0 92 4v-67q-18 -21 -44 -76q-84 -173 -123 -326q-29 -114 -45 -295zM179 -86l-35 -16q-34 65 -50 104q-74 181 -74 378q0 199 74 378q16 38 50 105l35 -16q-34 -60 -49 -99
q-72 -170 -72 -368q0 -197 72 -367q15 -39 49 -99zM857 -102l-35 16q34 60 49 99q72 170 72 367t-72 368q-15 39 -49 99l35 16q34 -67 50 -105q74 -181 74 -378t-74 -378q-16 -39 -50 -104zM162 679v75q25 -4 65 -4h30q47 0 72 4q-7 -71 -7 -161v-490q0 -67 7 -113h-85
q7 48 7 113v581h-28q-37 0 -61 -5z" />
    <glyph glyph-name="Japan1.8088" unicode="&#x2485;" 
d="M704 402q32 -7 56 -29q65 -57 65 -172q0 -103 -51 -159t-143 -56t-142.5 56.5t-50.5 158.5q0 77 33.5 132.5t88.5 68.5q-47 17 -72.5 63.5t-25.5 114.5q0 92 45.5 145t124.5 53q78 0 123.5 -53t45.5 -144q0 -106 -57 -155q-20 -17 -40 -24zM631 713q-47 0 -74 -37.5
t-27 -101.5q0 -65 27.5 -103.5t73.5 -38.5q48 0 75 39t27 108q0 60 -28 97t-74 37zM632 366q-56 0 -88.5 -42.5t-32.5 -116.5t31.5 -114t89.5 -40q57 0 88.5 39.5t31.5 112.5q0 74 -32.5 117.5t-87.5 43.5zM179 -86l-35 -16q-34 65 -50 104q-74 181 -74 378q0 199 74 378
q16 38 50 105l35 -16q-34 -60 -49 -99q-72 -170 -72 -368q0 -197 72 -367q15 -39 49 -99zM857 -102l-35 16q34 60 49 99q72 170 72 367t-72 368q-15 39 -49 99l35 16q34 -67 50 -105q74 -181 74 -378t-74 -378q-16 -39 -50 -104zM160 689v75q25 -4 65 -4h30q47 0 72 4
q-7 -71 -7 -161v-490q0 -67 7 -113h-85q7 48 7 113v581h-28q-37 0 -61 -5z" />
    <glyph glyph-name="Japan1.8089" unicode="&#x2486;" 
d="M452 143l70 24q13 -52 31 -78q28 -36 69 -36q75 0 108 105q23 73 29 219q-17 -42 -39 -65q-44 -47 -107 -47q-79 0 -125 68t-46 184q0 119 51 189.5t137 70.5q101 0 150 -104q47 -95 47 -278q0 -199 -52.5 -303t-153.5 -104q-78 0 -125 61q-24 31 -44 94zM625 331
q53 0 88 53t35 134q0 85 -33.5 139t-86.5 54t-85 -52.5t-32 -139.5q0 -103 39 -152q26 -36 75 -36zM179 -86l-35 -16q-34 65 -50 104q-74 181 -74 378q0 199 74 378q16 38 50 105l35 -16q-34 -60 -49 -99q-72 -170 -72 -368q0 -197 72 -367q15 -39 49 -99zM857 -102l-35 16
q34 60 49 99q72 170 72 367t-72 368q-15 39 -49 99l35 16q34 -67 50 -105q74 -181 74 -378t-74 -378q-16 -39 -50 -104zM161 689v75q25 -4 65 -4h30q47 0 72 4q-7 -71 -7 -161v-490q0 -67 7 -113h-85q7 48 7 113v581h-28q-37 0 -61 -5z" />
    <glyph glyph-name="Japan1.8090" unicode="&#x2487;" 
d="M393 0h-169q-50 0 -80 -3q2 9 5 45q8 104 49 187q32 63 122 165q46 53 63.5 92.5t17.5 90.5q0 61 -22.5 96t-62.5 35q-41 0 -66 -44q-21 -36 -30 -123l-71 11q19 114 51 162q42 61 115 61t114 -52t41 -144q0 -83 -35 -144q-22 -35 -88 -113q-64 -73 -88 -121
q-28 -59 -39 -136h174q56 0 80 6v-75q-31 4 -81 4zM689 -15q-172 0 -172 392q0 397 172 397q177 0 177 -396q0 -393 -177 -393zM690 708q-53 0 -78.5 -81t-25.5 -252q0 -323 104 -323q107 0 107 321q0 172 -26 253.5t-81 81.5zM179 -86l-35 -16q-34 65 -50 104
q-74 181 -74 378q0 199 74 378q16 38 50 105l35 -16q-34 -60 -49 -99q-72 -170 -72 -368q0 -197 72 -367q15 -39 49 -99zM857 -102l-35 16q34 60 49 99q72 170 72 367t-72 368q-15 39 -49 99l35 16q34 -67 50 -105q74 -181 74 -378t-74 -378q-16 -39 -50 -104z" />
    <glyph glyph-name="Japan1.8062" unicode="&#x2488;" 
d="M864 99h99v-99h-99v99zM330 686v79q32 -5 83 -5h63q42 0 83 5q-9 -92 -9 -166v-486q0 -64 8 -113h-95q8 47 8 113v579h-54q-43 0 -87 -6z" />
    <glyph glyph-name="Japan1.8063" unicode="&#x2489;" 
d="M863 99h99v-99h-99v99zM641 0h-304q-72 0 -110 -6q13 92 29 133q36 92 130 172q33 28 153 110q74 50 103 88t29 84q0 57 -45 91t-121 34q-100 0 -145 -65q-26 -37 -35 -101l-84 15q20 95 63 143q68 77 201 77q114 0 181 -53t67 -143q0 -104 -98 -179q-35 -26 -132 -91
q-101 -69 -143 -123t-57 -115h319q69 0 122 7v-84q-60 6 -123 6z" />
    <glyph glyph-name="Japan1.8064" unicode="&#x248a;" 
d="M863 99h99v-99h-99v99zM213 164l84 20q12 -38 25 -57.5t36 -36.5q51 -36 129 -36q87 0 138 42t51 113q0 74 -52 113.5t-152 39.5q-35 0 -80 -5v78q38 -5 74 -5q100 0 146 46q40 38 40 97q0 64 -42.5 100t-118.5 36q-92 0 -133 -53q-18 -23 -32 -71l-83 18q22 67 54 100
q67 73 199 73q109 0 173 -53t64 -143q0 -97 -70 -146q-33 -24 -94 -36q77 -8 123 -43q67 -52 67 -151q0 -101 -73 -160t-198 -59q-152 0 -224 82q-28 32 -51 97z" />
    <glyph glyph-name="Japan1.8065" unicode="&#x248b;" 
d="M864 99h99v-99h-99v99zM195 190v75q8 9 65 77l253 316q42 52 75 102h75q-6 -71 -6 -169v-328h38q54 0 104 7v-83q-52 7 -105 7h-37v-86q0 -59 8 -108h-91q8 47 8 108v86h-268q-75 0 -119 -4zM583 262v254q0 75 6 136q-28 -40 -75 -100l-230 -290h299z" />
    <glyph glyph-name="Japan1.8066" unicode="&#x248c;" 
d="M864 99h99v-99h-99v99zM366 691l-21 -221q-2 -18 -8 -45q72 69 175 69q110 0 180 -68q67 -66 67 -177q0 -121 -73 -192.5t-197 -71.5q-119 0 -191 69q-32 30 -63 93l82 25q14 -38 32 -59q53 -59 142 -59q84 0 135.5 52.5t51.5 138.5q0 83 -47.5 133t-127.5 50
q-77 0 -131 -42q-32 -25 -46 -60l-75 7q10 49 15 103l22 226q3 44 3 60q0 18 -2 43q39 -5 106 -5h206q64 0 117 8v-85q-51 8 -117 8h-235z" />
    <glyph glyph-name="Japan1.8067" unicode="&#x248d;" 
d="M864 99h99v-99h-99v99zM751 620l-80 -26q-18 43 -35 63q-45 50 -119 50q-118 0 -173 -124q-20 -45 -28.5 -89t-13.5 -126q24 42 50 64q68 61 169 61q116 0 183.5 -67.5t67.5 -183.5t-72 -186.5t-190 -70.5q-113 0 -181 63q-101 93 -101 314q0 200 76 303q80 109 211 109
q93 0 152 -42q26 -19 44 -43t40 -69zM693 241q0 89 -47.5 137t-135.5 48q-81 0 -138 -57q-50 -50 -50 -127q0 -81 54 -135t135 -54q49 0 91 22t65 59q26 42 26 107z" />
    <glyph glyph-name="Japan1.8068" unicode="&#x248e;" 
d="M863 99h99v-99h-99v99zM760 765v-73q-23 -18 -74 -96q-67 -104 -104.5 -179t-66.5 -167q-33 -106 -53 -250h-95q24 136 49.5 219.5t71.5 179.5q36 75 74.5 137t105.5 153h-325q-60 0 -113 -7v85q55 -7 114 -7h300q72 0 116 5z" />
    <glyph glyph-name="Japan1.8069" unicode="&#x248f;" 
d="M863 99h99v-99h-99v99zM598 398q57 -8 103 -43q75 -57 75 -157q0 -103 -72 -158.5t-204 -55.5q-137 0 -210.5 55.5t-73.5 158.5q0 109 89 165q40 27 90 35q-66 12 -105.5 61t-39.5 118q0 92 66.5 145.5t179.5 53.5q115 0 181 -53t66 -145q0 -70 -39 -118.5t-106 -61.5z
M496 709q-76 0 -122 -37.5t-46 -99.5q0 -67 45 -105t124 -38t123.5 38t44.5 105q0 63 -46 100t-123 37zM496 360q-92 0 -145 -42t-53 -115q0 -71 52 -111t145 -40q109 0 161 52q38 35 38 99q0 73 -53 115t-145 42z" />
    <glyph glyph-name="Japan1.8070" unicode="&#x2490;" 
d="M863 99h99v-99h-99v99zM233 140l82 26q16 -44 36 -65q42 -47 126 -47q107 0 161 92q30 53 43 129q6 34 9 116q-17 -33 -40 -55q-74 -70 -182 -70q-114 0 -180 66q-68 68 -68 180q0 119 74 191t197 72q84 0 149 -45t93 -124q29 -77 29 -207q0 -217 -83 -320
q-74 -93 -208 -93q-103 0 -168 54q-37 32 -70 100zM477 333q83 0 138.5 53t55.5 132q0 81 -53.5 135t-133.5 54q-50 0 -92 -22.5t-67 -62.5q-26 -42 -26 -105q0 -85 48 -134.5t130 -49.5z" />
    <glyph glyph-name="Japan1.8112" unicode="&#x249c;" 
d="M179 -86l-35 -16q-34 65 -50 104q-74 181 -74 378q0 199 74 378q16 38 50 105l35 -16q-34 -60 -49 -99q-72 -170 -72 -368q0 -197 72 -367q15 -39 49 -99zM857 -102l-35 16q34 60 49 99q72 170 72 367t-72 368q-15 39 -49 99l35 16q34 -67 50 -105q74 -181 74 -378
t-74 -378q-16 -39 -50 -104zM630 102v71q-50 -45 -92 -61q-52 -20 -104 -20q-83 0 -130 40.5t-47 111.5q0 60 36.5 102.5t106.5 61.5q77 22 230 26v58q0 103 -126 103q-82 0 -124 -43q-18 -20 -31 -58l-78 17q23 60 56 89q61 57 176 57q200 0 200 -164v-281q0 -57 8 -110
h-81zM630 310v65q-162 -4 -221 -29q-76 -31 -76 -102q0 -41 29 -65.5t77 -24.5q43 0 87 19t73 51q31 35 31 86z" />
    <glyph glyph-name="Japan1.8113" unicode="&#x249d;" 
d="M179 -86l-35 -16q-34 65 -50 104q-74 181 -74 378q0 199 74 378q16 38 50 105l35 -16q-34 -60 -49 -99q-72 -170 -72 -368q0 -197 72 -367q15 -39 49 -99zM857 -102l-35 16q34 60 49 99q72 170 72 367t-72 368q-15 39 -49 99l35 16q34 -67 50 -105q74 -181 74 -378
t-74 -378q-16 -39 -50 -104zM336 8h-80q7 53 7 115v532q0 58 -7 113h88q-7 -52 -7 -114v-135q0 -36 -4 -71q70 110 206 110q115 0 180.5 -73.5t65.5 -204.5q0 -132 -66.5 -207t-183.5 -75q-90 0 -155 54q-25 20 -47 52q3 -29 3 -40v-56zM708 281q0 101 -46 157t-129 56
q-88 0 -142 -59t-54 -155q0 -97 53.5 -157t139.5 -60q84 0 131 57.5t47 160.5z" />
    <glyph glyph-name="Japan1.8114" unicode="&#x249e;" 
d="M179 -86l-35 -16q-34 65 -50 104q-74 181 -74 378q0 199 74 378q16 38 50 105l35 -16q-34 -60 -49 -99q-72 -170 -72 -368q0 -197 72 -367q15 -39 49 -99zM857 -102l-35 16q34 60 49 99q72 170 72 367t-72 368q-15 39 -49 99l35 16q34 -67 50 -105q74 -181 74 -378
t-74 -378q-16 -39 -50 -104zM727 499l-73 -23q-41 115 -151 115q-83 0 -131.5 -59.5t-48.5 -160.5q0 -99 50 -157.5t134 -58.5q89 0 131 64q11 18 22 51l74 -20q-19 -48 -41 -77q-66 -84 -189 -84q-118 0 -188 76t-70 204q0 130 69 208t184 78q127 0 193 -92q18 -23 35 -64z
" />
    <glyph glyph-name="Japan1.8115" unicode="&#x249f;" 
d="M179 -86l-35 -16q-34 65 -50 104q-74 181 -74 378q0 199 74 378q16 38 50 105l35 -16q-34 -60 -49 -99q-72 -170 -72 -368q0 -197 72 -367q15 -39 49 -99zM857 -102l-35 16q34 60 49 99q72 170 72 367t-72 368q-15 39 -49 99l35 16q34 -67 50 -105q74 -181 74 -378
t-74 -378q-16 -39 -50 -104zM655 8v49q0 23 3 49q-70 -108 -202 -108q-116 0 -182 75t-66 205q0 128 66.5 204t179.5 76q139 0 204 -106l-1 15q-2 21 -2 53v134q0 61 -7 114h88q-7 -56 -7 -113v-532q0 -60 7 -115h-81zM462 493q-82 0 -128.5 -56.5t-46.5 -156.5
q0 -104 41 -156q48 -60 134 -60q88 0 140 59t52 158q0 105 -56 159q-55 53 -136 53z" />
    <glyph glyph-name="Japan1.8116" unicode="&#x24a0;" 
d="M179 -86l-35 -16q-34 65 -50 104q-74 181 -74 378q0 199 74 378q16 38 50 105l35 -16q-34 -60 -49 -99q-72 -170 -72 -368q0 -197 72 -367q15 -39 49 -99zM857 -102l-35 16q34 60 49 99q72 170 72 367t-72 368q-15 39 -49 99l35 16q34 -67 50 -105q74 -181 74 -378
t-74 -378q-16 -39 -50 -104zM751 360h-421q4 -91 41 -140q49 -68 140 -68q124 0 165 116l71 -27q-25 -53 -55 -83q-72 -70 -182 -70q-117 0 -186 76.5t-69 206.5q0 129 67.5 206.5t180.5 77.5q97 0 162 -58.5t80 -159.5q5 -50 6 -77zM333 423h339q-8 78 -54 124
q-47 45 -117 45q-95 0 -143 -88q-18 -34 -25 -81z" />
    <glyph glyph-name="Japan1.8117" unicode="&#x24a1;" 
d="M179 -86l-35 -16q-34 65 -50 104q-74 181 -74 378q0 199 74 378q16 38 50 105l35 -16q-34 -60 -49 -99q-72 -170 -72 -368q0 -197 72 -367q15 -39 49 -99zM857 -102l-35 16q34 60 49 99q72 170 72 367t-72 368q-15 39 -49 99l35 16q34 -67 50 -105q74 -181 74 -378
t-74 -378q-16 -39 -50 -104zM437 470h-41q-44 0 -91 -6v76q41 -6 91 -6h41v59q0 83 31 122q38 49 126 49q55 0 106 -20l-21 -67q-39 23 -83 23q-48 0 -68 -27q-15 -22 -15 -84v-55h50q62 0 106 6v-76q-41 6 -106 6h-50v-363q0 -61 7 -113h-90q7 52 7 113v363z" />
    <glyph glyph-name="Japan1.8118" unicode="&#x24a2;" 
d="M179 -86l-35 -16q-34 65 -50 104q-74 181 -74 378q0 199 74 378q16 38 50 105l35 -16q-34 -60 -49 -99q-72 -170 -72 -368q0 -197 72 -367q15 -39 49 -99zM857 -102l-35 16q34 60 49 99q72 170 72 367t-72 368q-15 39 -49 99l35 16q34 -67 50 -105q74 -181 74 -378
t-74 -378q-16 -39 -50 -104zM249 73l64 44q18 -24 32 -35q54 -47 134 -47q134 0 174 110q14 37 19 148q-21 -36 -44 -55q-58 -52 -155 -52q-113 0 -180 73.5t-67 198.5q0 128 68.5 203.5t184.5 75.5q131 0 193 -105q-2 34 -2 38v57h79q-7 -55 -7 -112v-359q0 -141 -57 -208
q-65 -76 -209 -76q-74 0 -125.5 23t-101.5 78zM304 459q0 -97 46.5 -153.5t126.5 -56.5q85 0 137.5 60t52.5 158q0 95 -50 151t-134 56q-83 0 -131 -57.5t-48 -157.5z" />
    <glyph glyph-name="Japan1.8119" unicode="&#x24a3;" 
d="M179 -86l-35 -16q-34 65 -50 104q-74 181 -74 378q0 199 74 378q16 38 50 105l35 -16q-34 -60 -49 -99q-72 -170 -72 -368q0 -197 72 -367q15 -39 49 -99zM857 -102l-35 16q34 60 49 99q72 170 72 367t-72 368q-15 39 -49 99l35 16q34 -67 50 -105q74 -181 74 -378
t-74 -378q-16 -39 -50 -104zM362 8h-89q7 50 7 113v534q0 61 -7 113h89q-8 -49 -8 -113v-170q0 -24 -3 -50q23 41 55 68q63 54 149 54q88 0 137.5 -49t49.5 -137v-251q0 -60 7 -112h-90q7 46 7 113v236q0 65 -31 99.5t-90 34.5q-82 0 -140 -73q-38 -47 -50 -105v-192
q0 -58 7 -113z" />
    <glyph glyph-name="Japan1.8120" unicode="&#x24a4;" 
d="M179 -86l-35 -16q-34 65 -50 104q-74 181 -74 378q0 199 74 378q16 38 50 105l35 -16q-34 -60 -49 -99q-72 -170 -72 -368q0 -197 72 -367q15 -39 49 -99zM857 -102l-35 16q34 60 49 99q72 170 72 367t-72 368q-15 39 -49 99l35 16q34 -67 50 -105q74 -181 74 -378
t-74 -378q-16 -39 -50 -104zM450 759h97v-89h-97v89zM452 538h90q-7 -49 -7 -113v-313q0 -57 7 -112h-90q7 60 7 112v313q0 64 -7 113z" />
    <glyph glyph-name="Japan1.8121" unicode="&#x24a5;" 
d="M179 -86l-35 -16q-34 65 -50 104q-74 181 -74 378q0 199 74 378q16 38 50 105l35 -16q-34 -60 -49 -99q-72 -170 -72 -368q0 -197 72 -367q15 -39 49 -99zM857 -102l-35 16q34 60 49 99q72 170 72 367t-72 368q-15 39 -49 99l35 16q34 -67 50 -105q74 -181 74 -378
t-74 -378q-16 -39 -50 -104zM481 833h97v-90h-97v90zM485 612h90q-7 -49 -7 -113v-420q0 -81 -38 -118q-38 -34 -111 -34q-49 0 -82 16.5t-67 56.5l69 45q20 -29 38.5 -40.5t45.5 -11.5q37 0 54 21q15 20 15 72v413q0 64 -7 113z" />
    <glyph glyph-name="Japan1.8122" unicode="&#x24a6;" 
d="M179 -86l-35 -16q-34 65 -50 104q-74 181 -74 378q0 199 74 378q16 38 50 105l35 -16q-34 -60 -49 -99q-72 -170 -72 -368q0 -197 72 -367q15 -39 49 -99zM857 -102l-35 16q34 60 49 99q72 170 72 367t-72 368q-15 39 -49 99l35 16q34 -67 50 -105q74 -181 74 -378
t-74 -378q-16 -39 -50 -104zM291 768h89q-7 -50 -7 -112v-363l181 176q50 48 71 79h119q-14 -13 -41 -37q-5 -5 -17.5 -16.5t-18.5 -17.5q-4 -4 -7.5 -7t-5.5 -6l-3 -3l-139 -130l169 -218q64 -82 87 -105h-114q-9 19 -18 32.5t-45 62.5l-133 183l-85 -82v-84q0 -63 7 -112
h-89q7 50 7 113v535q0 62 -7 112z" />
    <glyph glyph-name="Japan1.8123" unicode="&#x24a7;" 
d="M179 -86l-35 -16q-34 65 -50 104q-74 181 -74 378q0 199 74 378q16 38 50 105l35 -16q-34 -60 -49 -99q-72 -170 -72 -368q0 -197 72 -367q15 -39 49 -99zM857 -102l-35 16q34 60 49 99q72 170 72 367t-72 368q-15 39 -49 99l35 16q34 -67 50 -105q74 -181 74 -378
t-74 -378q-16 -39 -50 -104zM451 759h90q-7 -50 -7 -113v-535q0 -55 7 -111h-90q7 50 7 111v536q0 62 -7 112z" />
    <glyph glyph-name="Japan1.8124" unicode="&#x24a8;" 
d="M255 600l-2 -28q-2 -10 -3 -16q18 34 35 50q46 46 110 46q71 0 107 -50q15 -20 24 -55q21 38 43 59q49 46 112 46q149 0 149 -189v-249q0 -70 6 -112h-84q6 42 6 113v235q0 83 -23 111q-21 27 -67 27q-51 0 -88.5 -52.5t-37.5 -124.5v-197q0 -61 6 -112h-84q6 43 6 113
v235q0 138 -88 138q-62 0 -98 -66q-29 -53 -29 -111v-196q0 -56 6 -113h-84q6 54 6 113v313q0 70 -6 113h78v-41zM179 -86l-35 -16q-34 65 -50 104q-74 181 -74 378q0 199 74 378q16 38 50 105l35 -16q-34 -60 -49 -99q-72 -170 -72 -368q0 -197 72 -367q15 -39 49 -99z
M857 -102l-35 16q34 60 49 99q72 170 72 367t-72 368q-15 39 -49 99l35 16q34 -67 50 -105q74 -181 74 -378t-74 -378q-16 -39 -50 -104z" />
    <glyph glyph-name="Japan1.8125" unicode="&#x24a9;" 
d="M179 -86l-35 -16q-34 65 -50 104q-74 181 -74 378q0 199 74 378q16 38 50 105l35 -16q-34 -60 -49 -99q-72 -170 -72 -368q0 -197 72 -367q15 -39 49 -99zM857 -102l-35 16q34 60 49 99q72 170 72 367t-72 368q-15 39 -49 99l35 16q34 -67 50 -105q74 -181 74 -378
t-74 -378q-16 -39 -50 -104zM357 102h-90q8 51 8 113v313q0 60 -8 113h83v-68q0 -20 -3 -43q69 121 202 121q111 0 160 -75q28 -43 28 -115v-247q0 -66 7 -112h-90q7 55 7 113v233q0 67 -31.5 102.5t-90.5 35.5q-82 0 -143 -79q-35 -46 -46 -99v-193q0 -58 7 -113z" />
    <glyph glyph-name="Japan1.8126" unicode="&#x24aa;" 
d="M179 -86l-35 -16q-34 65 -50 104q-74 181 -74 378q0 199 74 378q16 38 50 105l35 -16q-34 -60 -49 -99q-72 -170 -72 -368q0 -197 72 -367q15 -39 49 -99zM857 -102l-35 16q34 60 49 99q72 170 72 367t-72 368q-15 39 -49 99l35 16q34 -67 50 -105q74 -181 74 -378
t-74 -378q-16 -39 -50 -104zM500 89q-123 0 -195.5 76t-72.5 206t72 206.5t194 76.5t194 -76.5t72 -205.5q0 -128 -72 -205.5t-192 -77.5zM500 591q-89 0 -140 -58.5t-51 -159.5q0 -102 50.5 -160.5t138.5 -58.5t138.5 58.5t50.5 159.5t-50.5 160t-136.5 59z" />
    <glyph glyph-name="Japan1.8127" unicode="&#x24ab;" 
d="M179 -86l-35 -16q-34 65 -50 104q-74 181 -74 378q0 199 74 378q16 38 50 105l35 -16q-34 -60 -49 -99q-72 -170 -72 -368q0 -197 72 -367q15 -39 49 -99zM857 -102l-35 16q34 60 49 99q72 170 72 367t-72 368q-15 39 -49 99l35 16q34 -67 50 -105q74 -181 74 -378
t-74 -378q-16 -39 -50 -104zM347 -22h-88q7 55 7 112v522q0 62 -7 115h80v-57q0 -16 -3 -41q68 108 204 108q116 0 182 -74.5t66 -204.5q0 -128 -67 -203.5t-179 -75.5q-135 0 -206 106q4 -37 4 -70v-124q0 -61 7 -113zM535 243q82 0 128.5 57t46.5 157q0 103 -46 159
t-130 56q-86 0 -139.5 -59t-53.5 -156q0 -104 57 -161q56 -53 137 -53z" />
    <glyph glyph-name="Japan1.8128" unicode="&#x24ac;" 
d="M179 -86l-35 -16q-34 65 -50 104q-74 181 -74 378q0 199 74 378q16 38 50 105l35 -16q-34 -60 -49 -99q-72 -170 -72 -368q0 -197 72 -367q15 -39 49 -99zM857 -102l-35 16q34 60 49 99q72 170 72 367t-72 368q-15 39 -49 99l35 16q34 -67 50 -105q74 -181 74 -378
t-74 -378q-16 -39 -50 -104zM739 -22h-88q7 53 7 113v124q0 35 4 70q-71 -106 -203 -106q-116 0 -182.5 74.5t-66.5 203.5q0 128 67 204t180 76q137 0 205 -108q-3 25 -3 41v57h80q-7 -52 -7 -115v-522q0 -60 7 -112zM288 457q0 -100 46.5 -156.5t128.5 -56.5q88 0 141 59
t53 157q0 96 -52 154t-138 58q-84 0 -131.5 -57t-47.5 -158z" />
    <glyph glyph-name="Japan1.8129" unicode="&#x24ad;" 
d="M179 -86l-35 -16q-34 65 -50 104q-74 181 -74 378q0 199 74 378q16 38 50 105l35 -16q-34 -60 -49 -99q-72 -170 -72 -368q0 -197 72 -367q15 -39 49 -99zM857 -102l-35 16q34 60 49 99q72 170 72 367t-72 368q-15 39 -49 99l35 16q34 -67 50 -105q74 -181 74 -378
t-74 -378q-16 -39 -50 -104zM733 641l-22 -77q-48 15 -81 15q-77 0 -123 -61q-32 -41 -37 -100v-204q0 -57 7 -112h-90q7 64 7 113v313q0 63 -7 113h83v-57q0 -23 -1 -30q25 41 55 61q53 35 120 35q35 0 89 -9z" />
    <glyph glyph-name="Japan1.8130" unicode="&#x24ae;" 
d="M179 -86l-35 -16q-34 65 -50 104q-74 181 -74 378q0 199 74 378q16 38 50 105l35 -16q-34 -60 -49 -99q-72 -170 -72 -368q0 -197 72 -367q15 -39 49 -99zM857 -102l-35 16q34 60 49 99q72 170 72 367t-72 368q-15 39 -49 99l35 16q34 -67 50 -105q74 -181 74 -378
t-74 -378q-16 -39 -50 -104zM272 248l82 14q9 -49 35 -73q40 -35 116 -35q65 0 103.5 26t38.5 70q0 43 -31 62q-29 18 -118 36q-104 22 -148 52q-54 37 -54 105q0 56 43 97q55 52 157 52t156 -48q36 -30 53 -91l-79 -13q-8 36 -24 53q-36 38 -105 38q-55 0 -90 -25t-35 -65
q0 -36 34 -55q30 -17 111 -34q120 -27 159 -57q48 -39 48 -104q0 -75 -59.5 -118.5t-162.5 -43.5q-141 0 -198 78q-19 27 -32 79z" />
    <glyph glyph-name="Japan1.8131" unicode="&#x24af;" 
d="M179 -86l-35 -16q-34 65 -50 104q-74 181 -74 378q0 199 74 378q16 38 50 105l35 -16q-34 -60 -49 -99q-72 -170 -72 -368q0 -197 72 -367q15 -39 49 -99zM857 -102l-35 16q34 60 49 99q72 170 72 367t-72 368q-15 39 -49 99l35 16q34 -67 50 -105q74 -181 74 -378
t-74 -378q-16 -39 -50 -104zM430 726h90q-7 -45 -7 -111v-38h48q60 0 102 6v-76q-38 6 -102 6h-48v-348q0 -40 13 -53q17 -17 49 -17q36 0 79 25l22 -69q-55 -23 -113 -23q-67 0 -98 31q-28 28 -28 96v358h-40q-41 0 -90 -6v76q34 -6 90 -6h40v38q0 65 -7 111z" />
    <glyph glyph-name="Japan1.8132" unicode="&#x24b0;" 
d="M179 -86l-35 -16q-34 65 -50 104q-74 181 -74 378q0 199 74 378q16 38 50 105l35 -16q-34 -60 -49 -99q-72 -170 -72 -368q0 -197 72 -367q15 -39 49 -99zM857 -102l-35 16q34 60 49 99q72 170 72 367t-72 368q-15 39 -49 99l35 16q34 -67 50 -105q74 -181 74 -378
t-74 -378q-16 -39 -50 -104zM659 102v65q0 18 3 44q-72 -120 -202 -120q-111 0 -160 75q-28 45 -28 116v247q0 67 -7 112h90q-7 -49 -7 -113v-233q0 -67 31.5 -103t89.5 -36q85 0 144 79q34 45 46 100v193q0 64 -7 113h89q-7 -49 -7 -113v-313q0 -60 8 -113h-83z" />
    <glyph glyph-name="Japan1.8133" unicode="&#x24b1;" 
d="M239 623h94q8 -41 31 -99l114 -294q11 -30 22 -65q9 29 23 65l114 294q23 58 30 99h94q-12 -21 -49 -111l-140 -336q-26 -66 -32 -93h-79q-6 26 -33 93l-139 336q-28 65 -50 111zM179 -86l-35 -16q-34 65 -50 104q-74 181 -74 378q0 199 74 378q16 38 50 105l35 -16
q-34 -60 -49 -99q-72 -170 -72 -368q0 -197 72 -367q15 -39 49 -99zM857 -102l-35 16q34 60 49 99q72 170 72 367t-72 368q-15 39 -49 99l35 16q34 -67 50 -105q74 -181 74 -378t-74 -378q-16 -39 -50 -104z" />
    <glyph glyph-name="Japan1.8134" unicode="&#x24b2;" 
d="M179 -86l-35 -16q-34 65 -50 104q-74 181 -74 378q0 199 74 378q16 38 50 105l35 -16q-34 -60 -49 -99q-72 -170 -72 -368q0 -197 72 -367q15 -39 49 -99zM857 -102l-35 16q34 60 49 99q72 170 72 367t-72 368q-15 39 -49 99l35 16q34 -67 50 -105q74 -181 74 -378
t-74 -378q-16 -39 -50 -104zM702 83h-69q-6 31 -20 75l-98 291q0 3 -17 64q-6 -21 -19 -65l-97 -290q-16 -46 -21 -75h-70q-8 34 -21 76l-108 346q-18 60 -40 118h92q3 -46 23 -110l73 -249q7 -20 19 -72q5 22 20 72l96 283q16 47 19 76h67q5 -32 20 -76l96 -289
q5 -15 13 -45q4 -15 6 -22q15 65 16 68l75 254q19 64 22 110h91q-10 -27 -39 -118l-108 -347q-16 -48 -21 -75z" />
    <glyph glyph-name="Japan1.8135" unicode="&#x24b3;" 
d="M179 -86l-35 -16q-34 65 -50 104q-74 181 -74 378q0 199 74 378q16 38 50 105l35 -16q-34 -60 -49 -99q-72 -170 -72 -368q0 -197 72 -367q15 -39 49 -99zM857 -102l-35 16q34 60 49 99q72 170 72 367t-72 368q-15 39 -49 99l35 16q34 -67 50 -105q74 -181 74 -378
t-74 -378q-16 -39 -50 -104zM746 102h-99q-16 31 -45 74l-106 153l-111 -162q-19 -29 -39 -65h-99q34 43 66 87l138 192l-129 180q-10 15 -59 80h97q13 -30 39 -67l98 -141l97 141q26 38 39 67h97q-40 -53 -61 -83l-127 -177l132 -184q10 -13 72 -95z" />
    <glyph glyph-name="Japan1.8136" unicode="&#x24b4;" 
d="M482 203l-183 407q-45 99 -55 117h98q9 -50 34 -106l145 -336l129 336q26 66 33 106h93q-2 -6 -9 -21.5t-18 -42t-22 -53.5l-224 -546q-38 -93 -141 -93q-31 0 -82 11l21 74q37 -17 61 -17q51 0 74 55zM179 -86l-35 -16q-34 65 -50 104q-74 181 -74 378q0 199 74 378
q16 38 50 105l35 -16q-34 -60 -49 -99q-72 -170 -72 -368q0 -197 72 -367q15 -39 49 -99zM857 -102l-35 16q34 60 49 99q72 170 72 367t-72 368q-15 39 -49 99l35 16q34 -67 50 -105q74 -181 74 -378t-74 -378q-16 -39 -50 -104z" />
    <glyph glyph-name="Japan1.8137" unicode="&#x24b5;" 
d="M704 644v-60q-33 -35 -67 -82l-215 -287l-38 -47q49 2 69 2h158q67 0 113 7v-82q-50 7 -113 7h-212q-69 0 -111 -3v66q35 37 68 81l220 294q12 17 30 36q-27 -2 -50 -2h-136q-59 0 -112 -7v81q55 -7 112 -7h178q78 0 106 3zM179 -86l-35 -16q-34 65 -50 104
q-74 181 -74 378q0 199 74 378q16 38 50 105l35 -16q-34 -60 -49 -99q-72 -170 -72 -368q0 -197 72 -367q15 -39 49 -99zM857 -102l-35 16q34 60 49 99q72 170 72 367t-72 368q-15 39 -49 99l35 16q34 -67 50 -105q74 -181 74 -378t-74 -378q-16 -39 -50 -104z" />
    <glyph glyph-name="Japan1.10339" unicode="&#x24b6;" 
d="M801 101h-91q-9 39 -25 84l-42 104h-284l-41 -104q-18 -46 -26 -84h-92q18 29 44 95l184 457q22 53 27 78h90q7 -26 28 -78l185 -457q26 -66 43 -95zM622 351l-103 268q-3 8 -18 52q-18 -51 -18 -52l-103 -268h242zM500 860q130 0 240.5 -64t174.5 -174.5t64 -240.5
t-64 -240.5t-174.5 -175t-240.5 -64.5q-97 0 -186 38t-153 102.5t-102 153t-38 186.5q0 97 38 186t102 153t153 102t186 38zM500 827q-184 0 -315 -130.5t-131 -315.5t130.5 -316t315.5 -131t315.5 131t130.5 316t-131 315.5t-315 130.5z" />
    <glyph glyph-name="Japan1.10340" unicode="&#x24b7;" 
d="M560 65h-187q-33 0 -93 -2q7 45 7 103v441q0 47 -7 90q23 -2 93 -2h178q90 0 138.5 -39.5t48.5 -113.5q0 -70 -45 -111q-23 -21 -64 -33q52 -11 80 -35q51 -44 51 -124q0 -83 -52.5 -128.5t-147.5 -45.5zM357 426h191q57 0 88 28.5t31 80.5q0 99 -120 99h-190v-208z
M357 366v-240h196q66 0 100.5 30.5t34.5 88.5q0 121 -137 121h-194zM500 860q130 0 240.5 -64t174.5 -174.5t64 -240.5t-64 -240.5t-174.5 -175t-240.5 -64.5q-97 0 -186 38t-153 102.5t-102 153t-38 186.5q0 97 38 186t102 153t153 102t186 38zM500 827q-184 0 -315 -130.5
t-131 -315.5t130.5 -316t315.5 -131t315.5 131t130.5 316t-131 315.5t-315 130.5z" />
    <glyph glyph-name="Japan1.10341" unicode="&#x24b8;" 
d="M759 533l-73 -20q-17 50 -38 73q-49 58 -140 58q-98 0 -155.5 -71t-57.5 -192t58 -192.5t156 -71.5q99 0 150 68q24 32 33 81l75 -17q-18 -65 -46 -100q-70 -95 -215 -95q-122 0 -195 73q-89 92 -89 252q0 164 96 258q72 70 190 70q116 0 186 -67q39 -39 65 -107z
M500 860q130 0 240.5 -64t174.5 -174.5t64 -240.5t-64 -240.5t-174.5 -175t-240.5 -64.5q-97 0 -186 38t-153 102.5t-102 153t-38 186.5q0 97 38 186t102 153t153 102t186 38zM500 827q-184 0 -315 -130.5t-131 -315.5t130.5 -316t315.5 -131t315.5 131t130.5 316
t-131 315.5t-315 130.5z" />
    <glyph glyph-name="Japan1.10342" unicode="&#x24b9;" 
d="M275 162v439q0 47 -7 96q58 -2 93 -2h140q139 0 215 -80.5t76 -228.5q0 -151 -77 -236t-214 -85h-140q-33 0 -93 -2q7 46 7 99zM345 128h153q98 0 153 57q68 71 68 199t-64 193q-54 55 -153 55h-157v-504zM500 860q130 0 240.5 -64t174.5 -174.5t64 -240.5t-64 -240.5
t-174.5 -175t-240.5 -64.5q-97 0 -186 38t-153 102.5t-102 153t-38 186.5q0 97 38 186t102 153t153 102t186 38zM500 827q-184 0 -315 -130.5t-131 -315.5t130.5 -316t315.5 -131t315.5 131t130.5 316t-131 315.5t-315 130.5z" />
    <glyph glyph-name="Japan1.10343" unicode="&#x24ba;" 
d="M719 134v-75q-32 6 -94 6h-243q-33 0 -93 -2q7 42 7 99v440q0 45 -7 95q58 -2 93 -2h236q51 0 93 6v-75q-35 6 -93 6h-251v-205h214q53 0 94 6v-74q-35 6 -94 6h-215v-237h259q57 0 94 6zM500 860q130 0 240.5 -64t174.5 -174.5t64 -240.5t-64 -240.5t-174.5 -175
t-240.5 -64.5q-97 0 -186 38t-153 102.5t-102 153t-38 186.5q0 97 38 186t102 153t153 102t186 38zM500 827q-184 0 -315 -130.5t-131 -315.5t130.5 -316t315.5 -131t315.5 131t130.5 316t-131 315.5t-315 130.5z" />
    <glyph glyph-name="Japan1.10344" unicode="&#x24bb;" 
d="M392 349v-196q0 -62 7 -99h-85q7 39 7 99v437q0 50 -7 95q58 -2 93 -2h219q57 0 97 6v-76q-41 6 -96 6h-235v-207h190q60 0 96 6v-75q-39 6 -96 6h-190zM500 860q130 0 240.5 -64t174.5 -174.5t64 -240.5t-64 -240.5t-174.5 -175t-240.5 -64.5q-97 0 -186 38t-153 102.5
t-102 153t-38 186.5q0 97 38 186t102 153t153 102t186 38zM500 827q-184 0 -315 -130.5t-131 -315.5t130.5 -316t315.5 -131t315.5 131t130.5 316t-131 315.5t-315 130.5z" />
    <glyph glyph-name="Japan1.10345" unicode="&#x24bc;" 
d="M677 323h-48q-55 0 -85 -5v72q30 -5 91 -5h27q52 0 88 3q-6 -44 -6 -94v-77q0 -53 6 -93q-63 -38 -115 -53t-121 -15q-124 0 -196 66q-97 89 -97 260q0 149 78.5 237.5t211.5 88.5q112 0 179 -62q36 -35 60 -94l-70 -22q-23 59 -64 87t-106 28q-101 0 -158.5 -70
t-57.5 -194q0 -132 68 -206q54 -59 151 -59q93 0 164 46v161zM500 860q130 0 240.5 -64t174.5 -174.5t64 -240.5t-64 -240.5t-174.5 -175t-240.5 -64.5q-97 0 -186 38t-153 102.5t-102 153t-38 186.5q0 97 38 186t102 153t153 102t186 38zM500 827q-184 0 -315 -130.5
t-131 -315.5t130.5 -316t315.5 -131t315.5 131t130.5 316t-131 315.5t-315 130.5z" />
    <glyph glyph-name="Japan1.10346" unicode="&#x24bd;" 
d="M673 695h84q-7 -36 -7 -93v-443q0 -57 7 -94h-84q7 42 7 94v205h-367v-205q0 -53 7 -94h-84q7 41 7 94v442q0 53 -7 94h84q-7 -42 -7 -93v-174h367v173q0 55 -7 94zM500 860q130 0 240.5 -64t174.5 -174.5t64 -240.5t-64 -240.5t-174.5 -175t-240.5 -64.5q-97 0 -186 38
t-153 102.5t-102 153t-38 186.5q0 97 38 186t102 153t153 102t186 38zM500 827q-184 0 -315 -130.5t-131 -315.5t130.5 -316t315.5 -131t315.5 131t130.5 316t-131 315.5t-315 130.5z" />
    <glyph glyph-name="Japan1.10347" unicode="&#x24be;" 
d="M458 695h85q-7 -39 -7 -94v-442q0 -55 7 -94h-85q7 36 7 94v442q0 59 -7 94zM500 860q130 0 240.5 -64t174.5 -174.5t64 -240.5t-64 -240.5t-174.5 -175t-240.5 -64.5q-97 0 -186 38t-153 102.5t-102 153t-38 186.5q0 97 38 186t102 153t153 102t186 38zM500 827
q-184 0 -315 -130.5t-131 -315.5t130.5 -316t315.5 -131t315.5 131t130.5 316t-131 315.5t-315 130.5z" />
    <glyph glyph-name="Japan1.10348" unicode="&#x24bf;" 
d="M534 695h85q-7 -36 -7 -94v-368q0 -178 -172 -178q-91 0 -140 51q-20 22 -42 65l71 29q18 -45 43.5 -64t68.5 -19q52 0 76 28t24 88v368q0 55 -7 94zM500 860q130 0 240.5 -64t174.5 -174.5t64 -240.5t-64 -240.5t-174.5 -175t-240.5 -64.5q-97 0 -186 38t-153 102.5
t-102 153t-38 186.5q0 97 38 186t102 153t153 102t186 38zM500 827q-184 0 -315 -130.5t-131 -315.5t130.5 -316t315.5 -131t315.5 131t130.5 316t-131 315.5t-315 130.5z" />
    <glyph glyph-name="Japan1.10349" unicode="&#x24c0;" 
d="M495 432l216 -275q55 -70 78 -92h-104q-16 32 -48 73l-191 248l-95 -94v-133q0 -53 7 -94h-83q7 42 7 94v442q0 51 -7 94h83q-7 -38 -7 -94v-223l245 247q40 40 57 70h105q-38 -37 -84 -85zM500 860q130 0 240.5 -64t174.5 -174.5t64 -240.5t-64 -240.5t-174.5 -175
t-240.5 -64.5q-97 0 -186 38t-153 102.5t-102 153t-38 186.5q0 97 38 186t102 153t153 102t186 38zM500 827q-184 0 -315 -130.5t-131 -315.5t130.5 -316t315.5 -131t315.5 131t130.5 316t-131 315.5t-315 130.5z" />
    <glyph glyph-name="Japan1.10350" unicode="&#x24c1;" 
d="M650 81h-240q-34 0 -92 -2q7 39 7 99v432q0 60 -7 101h84q-7 -42 -7 -100v-466h255q61 0 99 6v-76q-34 6 -99 6zM500 860q130 0 240.5 -64t174.5 -174.5t64 -240.5t-64 -240.5t-174.5 -175t-240.5 -64.5q-97 0 -186 38t-153 102.5t-102 153t-38 186.5q0 97 38 186
t102 153t153 102t186 38zM500 827q-184 0 -315 -130.5t-131 -315.5t130.5 -316t315.5 -131t315.5 131t130.5 316t-131 315.5t-315 130.5z" />
    <glyph glyph-name="Japan1.10351" unicode="&#x24c2;" 
d="M534 65h-67q-4 27 -27 86l-104 263q-37 93 -68 191q5 -152 5 -190v-254q0 -64 6 -96h-75q6 43 6 99v431q0 57 -6 100h96q5 -30 24 -83l177 -449l177 449q19 52 24 83h96q-6 -47 -6 -100v-431q0 -65 6 -99h-74q5 45 5 96v262q0 58 5 181q-28 -92 -64 -181l-109 -273
q-19 -49 -27 -85zM500 860q130 0 240.5 -64t174.5 -174.5t64 -240.5t-64 -240.5t-174.5 -175t-240.5 -64.5q-97 0 -186 38t-153 102.5t-102 153t-38 186.5q0 97 38 186t102 153t153 102t186 38zM500 827q-184 0 -315 -130.5t-131 -315.5t130.5 -316t315.5 -131t315.5 131
t130.5 316t-131 315.5t-315 130.5z" />
    <glyph glyph-name="Japan1.10352" unicode="&#x24c3;" 
d="M376 619l228 -342q41 -62 80 -129q-5 127 -5 175v275q0 58 -7 97h83q-7 -41 -7 -97v-439q0 -55 7 -94h-95q-15 30 -45 76l-231 349q-36 54 -72 120q5 -106 5 -175v-268q0 -61 7 -102h-83q7 38 7 102v434q0 53 -7 94h92q9 -24 43 -76zM500 860q130 0 240.5 -64
t174.5 -174.5t64 -240.5t-64 -240.5t-174.5 -175t-240.5 -64.5q-97 0 -186 38t-153 102.5t-102 153t-38 186.5q0 97 38 186t102 153t153 102t186 38zM500 827q-184 0 -315 -130.5t-131 -315.5t130.5 -316t315.5 -131t315.5 131t130.5 316t-131 315.5t-315 130.5z" />
    <glyph glyph-name="Japan1.10353" unicode="&#x24c4;" 
d="M500 707q132 0 209.5 -88.5t77.5 -238.5q0 -149 -78 -238t-209 -89t-209 88.5t-78 238.5q0 149 78 238t209 89zM501 116q98 0 155 71.5t57 192.5q0 137 -71 208q-56 56 -142 56q-97 0 -155.5 -72t-58.5 -191q0 -120 59 -192.5t156 -72.5zM500 860q130 0 240.5 -64
t174.5 -174.5t64 -240.5t-64 -240.5t-174.5 -175t-240.5 -64.5q-97 0 -186 38t-153 102.5t-102 153t-38 186.5q0 97 38 186t102 153t153 102t186 38zM500 827q-184 0 -315 -130.5t-131 -315.5t130.5 -316t315.5 -131t315.5 131t130.5 316t-131 315.5t-315 130.5z" />
    <glyph glyph-name="Japan1.10354" unicode="&#x24c5;" 
d="M393 47h-84q7 42 7 94v443q0 49 -7 95q60 -2 93 -2h168q98 0 150 -47.5t52 -135.5q0 -91 -54 -142t-152 -51h-180v-159q0 -54 7 -95zM386 363h180q65 0 99.5 33.5t34.5 95.5q0 123 -134 123h-180v-252zM500 860q130 0 240.5 -64t174.5 -174.5t64 -240.5t-64 -240.5
t-174.5 -175t-240.5 -64.5q-97 0 -186 38t-153 102.5t-102 153t-38 186.5q0 97 38 186t102 153t153 102t186 38zM500 827q-184 0 -315 -130.5t-131 -315.5t130.5 -316t315.5 -131t315.5 131t130.5 316t-131 315.5t-315 130.5z" />
    <glyph glyph-name="Japan1.10355" unicode="&#x24c6;" 
d="M743 80l-47 -49q-16 21 -55 60q-65 -38 -145 -38q-132 0 -210 88.5t-78 237.5t78.5 238.5t209.5 89.5t209 -88.5t78 -237.5q0 -87 -29 -157q-21 -49 -65 -96q28 -28 54 -48zM526 197l48 47q20 -23 65 -69q32 34 44 66q26 63 26 139q0 138 -71 209q-56 56 -141 56
q-98 0 -157 -72t-59 -193t59 -193t157 -72q55 0 96 24q-31 31 -67 58zM500 860q130 0 240.5 -64t174.5 -174.5t64 -240.5t-64 -240.5t-174.5 -175t-240.5 -64.5q-97 0 -186 38t-153 102.5t-102 153t-38 186.5q0 97 38 186t102 153t153 102t186 38zM500 827
q-184 0 -315 -130.5t-131 -315.5t130.5 -316t315.5 -131t315.5 131t130.5 316t-131 315.5t-315 130.5z" />
    <glyph glyph-name="Japan1.10356" unicode="&#x24c7;" 
d="M789 65h-93q-4 33 -48 139q-36 85 -66 115.5t-79 30.5h-148v-190q0 -60 7 -95h-84q7 37 7 95v442q0 49 -7 95q60 -2 93 -2h183q91 0 139 -41.5t48 -118.5q0 -78 -48 -122q-33 -28 -89 -41q35 -11 62.5 -53.5t85.5 -176.5q21 -48 37 -77zM355 411h191q56 0 89.5 32
t33.5 85q0 106 -118 106h-196v-223zM500 860q130 0 240.5 -64t174.5 -174.5t64 -240.5t-64 -240.5t-174.5 -175t-240.5 -64.5q-97 0 -186 38t-153 102.5t-102 153t-38 186.5q0 97 38 186t102 153t153 102t186 38zM500 827q-184 0 -315 -130.5t-131 -315.5t130.5 -316
t315.5 -131t315.5 131t130.5 316t-131 315.5t-315 130.5z" />
    <glyph glyph-name="Japan1.10357" unicode="&#x24c8;" 
d="M716 541l-75 -11q-8 43 -28 67q-39 47 -120 47q-62 0 -101.5 -30t-39.5 -79q0 -62 69 -91q22 -9 118 -29q101 -22 144.5 -62.5t43.5 -113.5q0 -88 -59 -136.5t-166 -48.5q-142 0 -200 78q-29 38 -41 112l78 9q4 -52 25 -81q42 -56 136 -56q72 0 113 32t41 88q0 61 -47 87
q-20 11 -39.5 16.5t-97.5 22.5q-75 17 -114 40q-75 43 -75 131q0 79 58.5 126t155.5 47q126 0 185 -77q24 -31 36 -88zM500 860q130 0 240.5 -64t174.5 -174.5t64 -240.5t-64 -240.5t-174.5 -175t-240.5 -64.5q-97 0 -186 38t-153 102.5t-102 153t-38 186.5q0 97 38 186
t102 153t153 102t186 38zM500 827q-184 0 -315 -130.5t-131 -315.5t130.5 -316t315.5 -131t315.5 131t130.5 316t-131 315.5t-315 130.5z" />
    <glyph glyph-name="Japan1.10358" unicode="&#x24c9;" 
d="M530 603v-471q0 -52 7 -95h-85q7 35 7 95v471h-126q-55 0 -97 -6v75q35 -6 96 -6h322q68 0 100 6v-75q-34 6 -100 6h-124zM500 860q130 0 240.5 -64t174.5 -174.5t64 -240.5t-64 -240.5t-174.5 -175t-240.5 -64.5q-97 0 -186 38t-153 102.5t-102 153t-38 186.5
q0 97 38 186t102 153t153 102t186 38zM500 827q-184 0 -315 -130.5t-131 -315.5t130.5 -316t315.5 -131t315.5 131t130.5 316t-131 315.5t-315 130.5z" />
    <glyph glyph-name="Japan1.10359" unicode="&#x24ca;" 
d="M675 684h84q-7 -41 -7 -95v-304q0 -112 -64 -178t-189 -66q-121 0 -186 63.5t-65 180.5v302q0 58 -7 97h84q-7 -39 -7 -97v-300q0 -88 47.5 -136t134.5 -48q88 0 135 47.5t47 136.5v300q0 56 -7 97zM500 860q130 0 240.5 -64t174.5 -174.5t64 -240.5t-64 -240.5
t-174.5 -175t-240.5 -64.5q-97 0 -186 38t-153 102.5t-102 153t-38 186.5q0 97 38 186t102 153t153 102t186 38zM500 827q-184 0 -315 -130.5t-131 -315.5t130.5 -316t315.5 -131t315.5 131t130.5 316t-131 315.5t-315 130.5z" />
    <glyph glyph-name="Japan1.10360" unicode="&#x24cb;" 
d="M327 588l153 -419q2 -5 20 -59q12 40 19 59l152 419q21 55 24 84h92q-16 -29 -42 -95l-176 -456q-19 -49 -25 -78h-88q-5 22 -27 78l-176 456q-25 66 -42 95h92q8 -42 24 -84zM500 860q130 0 240.5 -64t174.5 -174.5t64 -240.5t-64 -240.5t-174.5 -175t-240.5 -64.5
q-97 0 -186 38t-153 102.5t-102 153t-38 186.5q0 97 38 186t102 153t153 102t186 38zM500 827q-184 0 -315 -130.5t-131 -315.5t130.5 -316t315.5 -131t315.5 131t130.5 316t-131 315.5t-315 130.5z" />
    <glyph glyph-name="Japan1.10361" unicode="&#x24cc;" 
d="M469 679h61q4 -35 15 -79l70 -291q11 -49 31 -151q20 124 26 152l59 284q9 49 11 85h82q-11 -33 -26 -94l-103 -454q-11 -49 -17 -82h-65q-7 42 -16 78l-79 330q-13 56 -18 95q-2 -9 -6 -30q-6 -39 -13 -65l-78 -330q-12 -51 -16 -78h-65q-2 18 -17 82l-103 454
q-16 64 -26 94h82q1 -31 11 -85l59 -288q14 -63 26 -148q16 89 31 149l70 292q11 45 14 80zM500 860q130 0 240.5 -64t174.5 -174.5t64 -240.5t-64 -240.5t-174.5 -175t-240.5 -64.5q-97 0 -186 38t-153 102.5t-102 153t-38 186.5q0 97 38 186t102 153t153 102t186 38z
M500 827q-184 0 -315 -130.5t-131 -315.5t130.5 -316t315.5 -131t315.5 131t130.5 316t-131 315.5t-315 130.5z" />
    <glyph glyph-name="Japan1.10362" unicode="&#x24cd;" 
d="M493 349l-132 -199q-26 -40 -51 -85h-101q49 63 74 98l167 235l-147 207q-25 36 -68 90h100q16 -34 47 -80l114 -169l111 169q34 52 46 80h100q-42 -52 -69 -91l-146 -206l166 -233q19 -27 77 -100h-103q-36 62 -51 84zM500 860q130 0 240.5 -64t174.5 -174.5t64 -240.5
t-64 -240.5t-174.5 -175t-240.5 -64.5q-97 0 -186 38t-153 102.5t-102 153t-38 186.5q0 97 38 186t102 153t153 102t186 38zM500 827q-184 0 -315 -130.5t-131 -315.5t130.5 -316t315.5 -131t315.5 131t130.5 316t-131 315.5t-315 130.5z" />
    <glyph glyph-name="Japan1.10363" unicode="&#x24ce;" 
d="M540 39h-85q7 45 7 94v169l-189 293q-39 57 -51 73h97q9 -26 40 -76l139 -225l139 225q31 49 39 76h98q-19 -22 -52 -73l-189 -294v-168q0 -52 7 -94zM500 860q130 0 240.5 -64t174.5 -174.5t64 -240.5t-64 -240.5t-174.5 -175t-240.5 -64.5q-97 0 -186 38t-153 102.5
t-102 153t-38 186.5q0 97 38 186t102 153t153 102t186 38zM500 827q-184 0 -315 -130.5t-131 -315.5t130.5 -316t315.5 -131t315.5 131t130.5 316t-131 315.5t-315 130.5z" />
    <glyph glyph-name="Japan1.10364" unicode="&#x24cf;" 
d="M743 134v-75q-40 6 -99 6h-306q-40 0 -94 -2v64q21 20 59 70l306 401q12 15 31 36q-28 -2 -51 -2h-218q-60 0 -97 -6v75q43 -6 97 -6h264q30 0 94 2v-61q-24 -24 -60 -71l-297 -391q-18 -23 -40 -48q28 2 64 2h248q51 0 99 6zM500 860q130 0 240.5 -64t174.5 -174.5
t64 -240.5t-64 -240.5t-174.5 -175t-240.5 -64.5q-97 0 -186 38t-153 102.5t-102 153t-38 186.5q0 97 38 186t102 153t153 102t186 38zM500 827q-184 0 -315 -130.5t-131 -315.5t130.5 -316t315.5 -131t315.5 131t130.5 316t-131 315.5t-315 130.5z" />
    <glyph glyph-name="Japan1.10313" unicode="&#x24d0;" 
d="M611 155v57q-41 -35 -75 -49q-45 -16 -85 -16q-71 0 -110.5 33.5t-39.5 93.5q0 49 29.5 83.5t84.5 51.5q64 19 196 23v45q0 84 -103 84q-66 0 -101 -35q-12 -14 -25 -47l-69 15q20 52 48 76q54 46 147 46q168 0 168 -139v-230q0 -43 6 -92h-71zM611 328v52
q-131 -4 -180 -24q-62 -26 -62 -82q0 -33 23.5 -52.5t62.5 -19.5q35 0 70.5 15.5t59.5 40.5q26 27 26 70zM500 860q130 0 240.5 -64t174.5 -174.5t64 -240.5t-64 -240.5t-174.5 -175t-240.5 -64.5q-97 0 -186 38t-153 102.5t-102 153t-38 186.5q0 97 38 186t102 153t153 102
t186 38zM500 827q-184 0 -315 -130.5t-131 -315.5t130.5 -316t315.5 -131t315.5 131t130.5 316t-131 315.5t-315 130.5z" />
    <glyph glyph-name="Japan1.10314" unicode="&#x24d1;" 
d="M384 89h-72q6 37 6 97v438q0 46 -6 95h79q-6 -45 -6 -96v-106q0 -26 -3 -59q58 89 169 89q96 0 150.5 -61.5t54.5 -169.5q0 -110 -55.5 -173t-153.5 -63q-107 0 -165 85q0 -6 1 -7q0 -7 1 -26v-43zM687 316q0 82 -37.5 127.5t-104.5 45.5q-72 0 -116 -48t-44 -126
q0 -79 43.5 -128t113.5 -49q68 0 106.5 47.5t38.5 130.5zM500 860q130 0 240.5 -64t174.5 -174.5t64 -240.5t-64 -240.5t-174.5 -175t-240.5 -64.5q-97 0 -186 38t-153 102.5t-102 153t-38 186.5q0 97 38 186t102 153t153 102t186 38zM500 827q-184 0 -315 -130.5
t-131 -315.5t130.5 -316t315.5 -131t315.5 131t130.5 316t-131 315.5t-315 130.5z" />
    <glyph glyph-name="Japan1.10315" unicode="&#x24d2;" 
d="M693 483l-66 -19q-34 93 -122 93q-67 0 -106 -48.5t-39 -130.5q0 -81 40 -128.5t108 -47.5q71 0 106 52q9 14 17 41l67 -17q-14 -38 -34 -64q-54 -71 -158 -71q-98 0 -157 63.5t-59 169.5q0 108 58 173t154 65q137 0 191 -131zM500 860q130 0 240.5 -64t174.5 -174.5
t64 -240.5t-64 -240.5t-174.5 -175t-240.5 -64.5q-97 0 -186 38t-153 102.5t-102 153t-38 186.5q0 97 38 186t102 153t153 102t186 38zM500 827q-184 0 -315 -130.5t-131 -315.5t130.5 -316t315.5 -131t315.5 131t130.5 316t-131 315.5t-315 130.5z" />
    <glyph glyph-name="Japan1.10316" unicode="&#x24d3;" 
d="M623 89v39q0 14 2 38q-58 -86 -167 -86q-97 0 -152 62.5t-55 171.5q0 107 56 170t150 63q113 0 168 -85l-1 13q-2 16 -2 43v105q0 58 -6 96h79q-6 -51 -6 -95v-438q0 -57 6 -97h-72zM464 488q-66 0 -104 -45t-38 -123q0 -97 41 -140q39 -41 102 -41q71 0 113.5 48.5
t42.5 128.5q0 79 -43 125.5t-114 46.5zM500 860q130 0 240.5 -64t174.5 -174.5t64 -240.5t-64 -240.5t-174.5 -175t-240.5 -64.5q-97 0 -186 38t-153 102.5t-102 153t-38 186.5q0 97 38 186t102 153t153 102t186 38zM500 827q-184 0 -315 -130.5t-131 -315.5t130.5 -316
t315.5 -131t315.5 131t130.5 316t-131 315.5t-315 130.5z" />
    <glyph glyph-name="Japan1.10317" unicode="&#x24d4;" 
d="M709 366h-348q4 -74 33 -113q40 -54 114 -54q101 0 134 95l63 -24q-20 -45 -46 -69q-59 -59 -152 -59q-98 0 -156 63.5t-58 171.5q0 107 56.5 171.5t151.5 64.5q82 0 136 -48.5t66 -133.5q2 -10 6 -65zM364 422h274q-5 50 -29 83q-39 52 -103 52q-72 0 -110 -51
q-26 -36 -32 -84zM500 860q130 0 240.5 -64t174.5 -174.5t64 -240.5t-64 -240.5t-174.5 -175t-240.5 -64.5q-97 0 -186 38t-153 102.5t-102 153t-38 186.5q0 97 38 186t102 153t153 102t186 38zM500 827q-184 0 -315 -130.5t-131 -315.5t130.5 -316t315.5 -131t315.5 131
t130.5 316t-131 315.5t-315 130.5z" />
    <glyph glyph-name="Japan1.10318" unicode="&#x24d5;" 
d="M447 456h-33q-34 0 -76 -5v67q28 -5 75 -5h34v48q0 69 27 101q32 40 106 40q45 0 89 -16l-18 -59q-32 18 -69 18q-39 0 -55 -22q-12 -16 -12 -66v-44h41q48 0 87 5v-67q-35 5 -87 5h-41v-296q0 -50 6 -95h-80q6 45 6 95v296zM500 860q130 0 240.5 -64t174.5 -174.5
t64 -240.5t-64 -240.5t-174.5 -175t-240.5 -64.5q-97 0 -186 38t-153 102.5t-102 153t-38 186.5q0 97 38 186t102 153t153 102t186 38zM500 827q-184 0 -315 -130.5t-131 -315.5t130.5 -316t315.5 -131t315.5 131t130.5 316t-131 315.5t-315 130.5z" />
    <glyph glyph-name="Japan1.10319" unicode="&#x24d6;" 
d="M292 139l57 40q50 -67 135 -67q108 0 142 86q13 33 16 118q-16 -27 -36 -44q-50 -41 -127 -41q-94 0 -149.5 61t-55.5 164q0 106 56.5 168t153.5 62q106 0 158 -82q-2 22 -2 29v45h71q-6 -38 -6 -94v-292q0 -119 -50 -175q-55 -61 -173 -61q-62 0 -106 19t-84 64z
M344 456q0 -79 37.5 -124t102.5 -45q69 0 111.5 48.5t42.5 127.5q0 76 -40.5 121.5t-108.5 45.5q-67 0 -106 -47t-39 -127zM500 860q130 0 240.5 -64t174.5 -174.5t64 -240.5t-64 -240.5t-174.5 -175t-240.5 -64.5q-97 0 -186 38t-153 102.5t-102 153t-38 186.5q0 97 38 186
t102 153t153 102t186 38zM500 827q-184 0 -315 -130.5t-131 -315.5t130.5 -316t315.5 -131t315.5 131t130.5 316t-131 315.5t-315 130.5z" />
    <glyph glyph-name="Japan1.10320" unicode="&#x24d7;" 
d="M401 89h-79q6 36 6 95v440q0 57 -6 95h79q-6 -37 -6 -95v-135q0 -17 -2 -42q56 98 168 98q73 0 114 -41t41 -114v-207q0 -49 6 -94h-80q6 42 6 95v193q0 109 -97 109q-67 0 -113 -58q-31 -37 -43 -85v-159q0 -46 6 -95zM500 860q130 0 240.5 -64t174.5 -174.5t64 -240.5
t-64 -240.5t-174.5 -175t-240.5 -64.5q-97 0 -186 38t-153 102.5t-102 153t-38 186.5q0 97 38 186t102 153t153 102t186 38zM500 827q-184 0 -315 -130.5t-131 -315.5t130.5 -316t315.5 -131t315.5 131t130.5 316t-131 315.5t-315 130.5z" />
    <glyph glyph-name="Japan1.10321" unicode="&#x24d8;" 
d="M453 695h85v-77h-85v77zM455 513h81q-6 -35 -6 -95v-258q0 -55 6 -95h-81q6 46 6 95v258q0 52 -6 95zM500 860q130 0 240.5 -64t174.5 -174.5t64 -240.5t-64 -240.5t-174.5 -175t-240.5 -64.5q-97 0 -186 38t-153 102.5t-102 153t-38 186.5q0 97 38 186t102 153t153 102
t186 38zM500 827q-184 0 -315 -130.5t-131 -315.5t130.5 -316t315.5 -131t315.5 131t130.5 316t-131 315.5t-315 130.5z" />
    <glyph glyph-name="Japan1.10322" unicode="&#x24d9;" 
d="M484 729h85v-78h-85v78zM486 553h81q-6 -35 -6 -95v-297q0 -73 -33 -103q-32 -29 -95 -29q-42 0 -70.5 14.5t-57.5 49.5l62 38q31 -43 69 -43q32 0 44 17t12 61v292q0 53 -6 95zM500 860q130 0 240.5 -64t174.5 -174.5t64 -240.5t-64 -240.5t-174.5 -175t-240.5 -64.5
q-97 0 -186 38t-153 102.5t-102 153t-38 186.5q0 97 38 186t102 153t153 102t186 38zM500 827q-184 0 -315 -130.5t-131 -315.5t130.5 -316t315.5 -131t315.5 131t130.5 316t-131 315.5t-315 130.5z" />
    <glyph glyph-name="Japan1.10323" unicode="&#x24da;" 
d="M343 719h79q-6 -36 -6 -95v-294l145 141q44 42 59 66h106q-11 -11 -33 -30q-22 -20 -30 -28l-14 -14l-115 -107l139 -181q57 -73 72 -88h-100q-12 25 -52 80l-107 148l-70 -67v-67q0 -51 6 -94h-79q6 44 6 95v440q0 60 -6 95zM500 860q130 0 240.5 -64t174.5 -174.5
t64 -240.5t-64 -240.5t-174.5 -175t-240.5 -64.5q-97 0 -186 38t-153 102.5t-102 153t-38 186.5q0 97 38 186t102 153t153 102t186 38zM500 827q-184 0 -315 -130.5t-131 -315.5t130.5 -316t315.5 -131t315.5 131t130.5 316t-131 315.5t-315 130.5z" />
    <glyph glyph-name="Japan1.10324" unicode="&#x24db;" 
d="M461 695h80q-6 -45 -6 -95v-440q0 -54 6 -95h-80q6 38 6 95v440q0 53 -6 95zM500 860q130 0 240.5 -64t174.5 -174.5t64 -240.5t-64 -240.5t-174.5 -175t-240.5 -64.5q-97 0 -186 38t-153 102.5t-102 153t-38 186.5q0 97 38 186t102 153t153 102t186 38zM500 827
q-184 0 -315 -130.5t-131 -315.5t130.5 -316t315.5 -131t315.5 131t130.5 316t-131 315.5t-315 130.5z" />
    <glyph glyph-name="Japan1.10325" unicode="&#x24dc;" 
d="M541 151h-78q6 36 6 95v194q0 53 -21.5 81.5t-62.5 28.5q-61 0 -100 -61q-10 -16 -18 -41t-8 -39v-163q0 -55 6 -95h-77q6 43 6 95v258q0 59 -6 95h71v-43q0 -15 -1 -18v-7v-5q9 19 31 41q39 41 109 41q96 0 124 -88q50 88 146 88q79 0 115 -50q28 -38 28 -109v-204
q0 -58 6 -94h-78q6 37 6 95v194q0 58 -20.5 84.5t-66.5 26.5q-60 0 -97 -59q-26 -42 -26 -83v-164q0 -57 6 -94zM500 860q130 0 240.5 -64t174.5 -174.5t64 -240.5t-64 -240.5t-174.5 -175t-240.5 -64.5q-97 0 -186 38t-153 102.5t-102 153t-38 186.5q0 97 38 186t102 153
t153 102t186 38zM500 827q-184 0 -315 -130.5t-131 -315.5t130.5 -316t315.5 -131t315.5 131t130.5 316t-131 315.5t-315 130.5z" />
    <glyph glyph-name="Japan1.10326" unicode="&#x24dd;" 
d="M384 155h-80q7 43 7 94v258q0 50 -7 95h74v-52q0 -18 -2 -36q58 96 167 96q76 0 116 -40.5t40 -117.5v-203q0 -53 6 -94h-80q6 42 6 94v191q0 112 -98 112q-66 0 -115 -62q-29 -36 -40 -80v-161q0 -45 6 -94zM500 860q130 0 240.5 -64t174.5 -174.5t64 -240.5t-64 -240.5
t-174.5 -175t-240.5 -64.5q-97 0 -186 38t-153 102.5t-102 153t-38 186.5q0 97 38 186t102 153t153 102t186 38zM500 827q-184 0 -315 -130.5t-131 -315.5t130.5 -316t315.5 -131t315.5 131t130.5 316t-131 315.5t-315 130.5z" />
    <glyph glyph-name="Japan1.10327" unicode="&#x24de;" 
d="M501 143q-103 0 -163.5 63.5t-60.5 171.5t60.5 171.5t162.5 63.5t162 -63.5t60 -170.5t-60.5 -171.5t-160.5 -64.5zM501 557q-72 0 -113.5 -47.5t-41.5 -130.5q0 -82 41 -130t112 -48q72 0 113 47t41 130t-40.5 131t-111.5 48zM500 860q130 0 240.5 -64t174.5 -174.5
t64 -240.5t-64 -240.5t-174.5 -175t-240.5 -64.5q-97 0 -186 38t-153 102.5t-102 153t-38 186.5q0 97 38 186t102 153t153 102t186 38zM500 827q-184 0 -315 -130.5t-131 -315.5t130.5 -316t315.5 -131t315.5 131t130.5 316t-131 315.5t-315 130.5z" />
    <glyph glyph-name="Japan1.10328" unicode="&#x24df;" 
d="M388 55h-79q6 50 6 95v427q0 60 -6 97h72v-45q0 -16 -2 -33q59 87 167 87q97 0 152 -61.5t55 -170.5q0 -106 -55.5 -169t-149.5 -63q-109 0 -169 84q3 -36 3 -58v-95q0 -50 6 -95zM540 277q67 0 105 46.5t38 127.5q0 83 -37.5 128.5t-105.5 45.5q-71 0 -114.5 -48
t-43.5 -126q0 -85 47 -130q44 -44 111 -44zM500 860q130 0 240.5 -64t174.5 -174.5t64 -240.5t-64 -240.5t-174.5 -175t-240.5 -64.5q-97 0 -186 38t-153 102.5t-102 153t-38 186.5q0 97 38 186t102 153t153 102t186 38zM500 827q-184 0 -315 -130.5t-131 -315.5t130.5 -316
t315.5 -131t315.5 131t130.5 316t-131 315.5t-315 130.5z" />
    <glyph glyph-name="Japan1.10329" unicode="&#x24e0;" 
d="M686 55h-79q6 47 6 95v95q0 29 4 58q-60 -84 -168 -84q-96 0 -151.5 62t-55.5 170q0 106 56 169t150 63q111 0 169 -87q-2 18 -2 33v45h71q-6 -37 -6 -97v-427q0 -48 6 -95zM312 449q0 -80 37.5 -126t104.5 -46q71 0 114.5 48t43.5 127q0 77 -42.5 124.5t-111.5 47.5
t-107.5 -46t-38.5 -129zM500 860q130 0 240.5 -64t174.5 -174.5t64 -240.5t-64 -240.5t-174.5 -175t-240.5 -64.5q-97 0 -186 38t-153 102.5t-102 153t-38 186.5q0 97 38 186t102 153t153 102t186 38zM500 827q-184 0 -315 -130.5t-131 -315.5t130.5 -316t315.5 -131
t315.5 131t130.5 316t-131 315.5t-315 130.5z" />
    <glyph glyph-name="Japan1.10330" unicode="&#x24e1;" 
d="M690 595l-19 -68q-41 12 -68 12q-64 0 -100 -49q-26 -32 -31 -83v-165q0 -46 6 -94h-80q6 47 6 94v258q0 60 -6 95h74v-45v-8v-5q0 -7 -1 -13q22 37 48 52q43 27 98 27q30 0 73 -8zM500 860q130 0 240.5 -64t174.5 -174.5t64 -240.5t-64 -240.5t-174.5 -175t-240.5 -64.5
q-97 0 -186 38t-153 102.5t-102 153t-38 186.5q0 97 38 186t102 153t153 102t186 38zM500 827q-184 0 -315 -130.5t-131 -315.5t130.5 -316t315.5 -131t315.5 131t130.5 316t-131 315.5t-315 130.5z" />
    <glyph glyph-name="Japan1.10331" unicode="&#x24e2;" 
d="M308 277l73 11q8 -39 29 -59q31 -28 93 -28q52 0 83 21t31 56q0 33 -25 49q-23 15 -95 30q-84 17 -121 42q-48 29 -48 89q0 56 46.5 90.5t120.5 34.5q87 0 133 -40q28 -25 43 -76l-71 -11q-5 27 -19 42q-28 31 -84 31q-45 0 -73 -19.5t-28 -51.5q0 -31 28 -45
q24 -14 89 -28q66 -14 95 -26t47 -31q31 -31 31 -83q0 -48 -36 -82q-51 -48 -150 -48q-117 0 -165 65q-17 23 -27 67zM500 860q130 0 240.5 -64t174.5 -174.5t64 -240.5t-64 -240.5t-174.5 -175t-240.5 -64.5q-97 0 -186 38t-153 102.5t-102 153t-38 186.5q0 97 38 186
t102 153t153 102t186 38zM500 827q-184 0 -315 -130.5t-131 -315.5t130.5 -316t315.5 -131t315.5 131t130.5 316t-131 315.5t-315 130.5z" />
    <glyph glyph-name="Japan1.10332" unicode="&#x24e3;" 
d="M429 666h80q-6 -38 -6 -92v-30h39q46 0 83 5v-67q-34 5 -83 5h-39v-282q0 -32 11.5 -44.5t39.5 -12.5q30 0 64 21l18 -62q-48 -19 -94 -19q-57 0 -83 26q-24 23 -24 81v292h-33q-42 0 -74 -5v67q29 -5 74 -5h33v30q0 52 -6 92zM500 860q130 0 240.5 -64t174.5 -174.5
t64 -240.5t-64 -240.5t-174.5 -175t-240.5 -64.5q-97 0 -186 38t-153 102.5t-102 153t-38 186.5q0 97 38 186t102 153t153 102t186 38zM500 827q-184 0 -315 -130.5t-131 -315.5t130.5 -316t315.5 -131t315.5 131t130.5 316t-131 315.5t-315 130.5z" />
    <glyph glyph-name="Japan1.10333" unicode="&#x24e4;" 
d="M618 148v51q0 15 2 36q-60 -96 -167 -96q-92 0 -132 62q-24 36 -24 97v203q0 53 -6 94h80q-6 -45 -6 -94v-191q0 -55 25 -84t72 -29q67 0 116 62q29 37 40 81v161q0 47 -6 94h79q-6 -45 -6 -94v-258q0 -47 7 -95h-74zM500 860q130 0 240.5 -64t174.5 -174.5t64 -240.5
t-64 -240.5t-174.5 -175t-240.5 -64.5q-97 0 -186 38t-153 102.5t-102 153t-38 186.5q0 97 38 186t102 153t153 102t186 38zM500 827q-184 0 -315 -130.5t-131 -315.5t130.5 -316t315.5 -131t315.5 131t130.5 316t-131 315.5t-315 130.5z" />
    <glyph glyph-name="Japan1.10334" unicode="&#x24e5;" 
d="M276 584h84q5 -30 25 -81l92 -241q11 -27 19 -54q4 15 18 54l92 241q20 51 24 81h84q-14 -28 -40 -90l-116 -282q-18 -43 -26 -76h-72q-6 26 -27 76l-116 282q-23 52 -41 90zM500 860q130 0 240.5 -64t174.5 -174.5t64 -240.5t-64 -240.5t-174.5 -175t-240.5 -64.5
q-97 0 -186 38t-153 102.5t-102 153t-38 186.5q0 97 38 186t102 153t153 102t186 38zM500 827q-184 0 -315 -130.5t-131 -315.5t130.5 -316t315.5 -131t315.5 131t130.5 316t-131 315.5t-315 130.5z" />
    <glyph glyph-name="Japan1.10335" unicode="&#x24e6;" 
d="M469 588h60q4 -29 16 -64l67 -200q10 -29 26 -93q2 9 6 31q8 36 20 75l47 160q17 60 18 91h81q-12 -33 -33 -98l-89 -285q-13 -41 -17 -64h-62q-6 30 -18 64l-78 233q-6 21 -14 53q-11 -43 -16 -54l-78 -232q-11 -34 -17 -64h-63q-6 27 -18 65l-88 284q-27 80 -34 98h82
q3 -37 18 -91l48 -161q11 -35 26 -105q13 57 29 102l64 191q14 43 17 64zM500 860q130 0 240.5 -64t174.5 -174.5t64 -240.5t-64 -240.5t-174.5 -175t-240.5 -64.5q-97 0 -186 38t-153 102.5t-102 153t-38 186.5q0 97 38 186t102 153t153 102t186 38zM500 827
q-184 0 -315 -130.5t-131 -315.5t130.5 -316t315.5 -131t315.5 131t130.5 316t-131 315.5t-315 130.5z" />
    <glyph glyph-name="Japan1.10336" unicode="&#x24e7;" 
d="M709 155h-89q-15 30 -37 62l-85 123l-89 -130q-13 -19 -33 -55h-88q28 34 54 72l115 160l-106 149q-2 2 -8.5 10.5t-17.5 23t-24 32.5h87q12 -27 32 -56l79 -113l77 113q21 29 33 56h86q-6 -7 -20 -26q-2 -3 -7.5 -10.5t-13 -17t-10.5 -14.5l-105 -147l110 -153
q14 -21 60 -79zM500 860q130 0 240.5 -64t174.5 -174.5t64 -240.5t-64 -240.5t-174.5 -175t-240.5 -64.5q-97 0 -186 38t-153 102.5t-102 153t-38 186.5q0 97 38 186t102 153t153 102t186 38zM500 827q-184 0 -315 -130.5t-131 -315.5t130.5 -316t315.5 -131t315.5 131
t130.5 316t-131 315.5t-315 130.5z" />
    <glyph glyph-name="Japan1.10337" unicode="&#x24e8;" 
d="M479 245l-151 335q-32 70 -45 97h86q6 -35 28 -88l117 -271l105 270q22 58 28 89h82q-14 -31 -41 -97l-185 -449q-32 -78 -120 -78q-23 0 -71 9l18 66q33 -15 52 -15q42 0 61 46zM500 860q130 0 240.5 -64t174.5 -174.5t64 -240.5t-64 -240.5t-174.5 -175t-240.5 -64.5
q-97 0 -186 38t-153 102.5t-102 153t-38 186.5q0 97 38 186t102 153t153 102t186 38zM500 827q-184 0 -315 -130.5t-131 -315.5t130.5 -316t315.5 -131t315.5 131t130.5 316t-131 315.5t-315 130.5z" />
    <glyph glyph-name="Japan1.10338" unicode="&#x24e9;" 
d="M660 604v-53q-21 -23 -56 -68l-174 -230q-2 -2 -6.5 -7.5t-8.5 -11.5q-7 -8 -16 -19q29 1 56 1h127q62 0 94 6v-73q-35 6 -94 6h-177q-69 0 -93 -2v59q20 19 57 66l178 237q14 17 25 28q-17 -1 -41 -1h-108q-46 0 -94 -6v72q48 -6 94 -6h148q65 0 89 2zM500 860
q130 0 240.5 -64t174.5 -174.5t64 -240.5t-64 -240.5t-174.5 -175t-240.5 -64.5q-97 0 -186 38t-153 102.5t-102 153t-38 186.5q0 97 38 186t102 153t153 102t186 38zM500 827q-184 0 -315 -130.5t-131 -315.5t130.5 -316t315.5 -131t315.5 131t130.5 316t-131 315.5
t-315 130.5z" />
    <glyph glyph-name="Japan1.8224" unicode="&#x24ea;" 
d="M501 43q-118 0 -180.5 87t-62.5 251q0 161 62.5 248.5t176.5 87.5q53 0 99.5 -20.5t75.5 -57.5q32 -40 50.5 -110t18.5 -154q0 -160 -62.5 -246t-177.5 -86zM498 655q-168 0 -168 -275t169 -275q170 0 170 275t-171 275zM500 860q130 0 240.5 -64t174.5 -174.5t64 -240.5
t-64 -240.5t-174.5 -175t-240.5 -64.5q-97 0 -186 38t-153 102.5t-102 153t-38 186.5q0 97 38 186t102 153t153 102t186 38zM500 827q-184 0 -315 -130.5t-131 -315.5t130.5 -316t315.5 -131t315.5 131t130.5 316t-131 315.5t-315 130.5z" />
    <glyph glyph-name="Japan1.10515" unicode="&#x24eb;" 
d="M501 860q198 0 338 -140.5t140 -339.5q0 -130 -64 -240.5t-174 -174.5t-240 -64q-98 0 -186.5 38t-153 102t-102.5 153t-38 186q0 130 64.5 240.5t175 175t240.5 64.5zM204 698v-69q23 5 60 5h38v-465q0 -61 -7 -104h81q-7 42 -7 104v378q0 88 7 151q-25 -4 -68 -4h-43
q-34 0 -61 4zM538 698v-69q22 5 59 5h42v-465q0 -61 -7 -104h81q-7 42 -7 104v378q0 85 7 151q-25 -4 -68 -4h-46q-34 0 -61 4z" />
    <glyph glyph-name="Japan1.10516" unicode="&#x24ec;" 
d="M501 859q130 0 240.5 -64t174.5 -174.5t64 -240.5t-64 -240.5t-174.5 -174.5t-240.5 -64t-240.5 64t-175 174.5t-64.5 240.5q0 97 38 186t102.5 153t153 102t186.5 38zM197 700v-69q24 5 59 5h22v-465q0 -63 -7 -104h82q-7 45 -7 104v378q0 75 6 151q-24 -4 -68 -4h-27
q-36 0 -60 4zM478 524l69 -9q11 77 32 103q24 30 62 30q40 0 63 -29t23 -79q0 -42 -20 -75q-10 -19 -51 -58q-86 -85 -115 -125q-51 -75 -63 -179q-1 -13 -6 -39q33 3 80 3h159q50 0 82 -4v68q-26 -5 -80 -5h-162q10 67 40.5 114t110.5 121q53 49 73 88t20 94q0 77 -41 121
t-113 44q-79 0 -120 -59q-27 -36 -43 -125z" />
    <glyph glyph-name="Japan1.10517" unicode="&#x24ed;" 
d="M500 859q130 0 240.5 -64t174.5 -174.5t64 -240.5t-64 -240.5t-174.5 -174.5t-240.5 -64t-240.5 64t-174.5 174.5t-64 240.5q0 97 38 186t102 153t153 102t186 38zM197 700v-69q24 5 60 5h22v-465q0 -61 -7 -104h81q-7 42 -7 104v378q0 88 7 151q-24 -4 -68 -4h-27
q-37 0 -61 4zM570 431v-66q28 4 49 4q58 0 89 -32.5t31 -93.5q0 -59 -29 -94.5t-78 -35.5q-52 0 -80 39q-17 22 -27 70l-68 -16q15 -62 38 -91q44 -61 138 -61q80 0 126.5 49.5t46.5 134.5q0 100 -61 141q-23 15 -64 21q48 8 75 42q33 42 33 114q0 69 -41 110.5t-109 41.5
q-76 0 -120 -49q-29 -34 -44 -96l68 -13q11 55 31 77.5t59 22.5q41 0 65 -28t24 -77q0 -58 -28.5 -88.5t-81.5 -30.5q-19 0 -42 5z" />
    <glyph glyph-name="Japan1.10518" unicode="&#x24ee;" 
d="M501 859q130 0 240.5 -64t174.5 -174.5t64 -240.5t-64 -240.5t-174.5 -174.5t-240.5 -64q-98 0 -186.5 38t-153 102t-102.5 153t-38 186t38 186t102.5 153t153 102t186.5 38zM197 698v-68q24 5 60 5h22v-466q0 -61 -7 -104h81q-7 43 -7 104v379q0 83 7 150q-24 -4 -68 -4
h-27q-37 0 -61 4zM743 694h-73q-31 -66 -42 -85l-151 -263q-25 -43 -39 -64l2 -63q31 3 80 3h157v-67q0 -50 -5 -90h72q-5 41 -5 90v67h17q38 0 61 -3v66q-18 -4 -60 -4h-18v273q0 79 4 140zM508 280l133 237q25 42 39 76q-3 -53 -3 -105v-208h-169z" />
    <glyph glyph-name="Japan1.10519" unicode="&#x24ef;" 
d="M500 859q130 0 240.5 -64t174.5 -174.5t64 -240.5t-64 -240.5t-174.5 -174.5t-240.5 -64t-240.5 64t-174.5 174.5t-64 240.5q0 97 38 186t102 153t153 102t186 38zM198 698v-69q29 6 60 6h22v-466q0 -61 -7 -104h81q-7 45 -7 104v378q0 80 7 151q-24 -4 -68 -4h-27
q-38 0 -61 4zM563 635h129q63 0 89 -5v69q-25 -5 -89 -5h-122q-41 0 -70 4q1 -13 1 -26q0 -20 -2 -54l-14 -195q-4 -47 -10 -80l64 -5q6 24 18 38q31 42 82 42q47 0 74 -39.5t27 -109.5t-29.5 -112.5t-78.5 -42.5q-48 0 -77 38q-13 18 -22 56l-68 -19q25 -62 47 -87
q44 -49 121 -49q80 0 128 60t48 160q0 93 -43.5 148.5t-116.5 55.5q-63 0 -104 -57q3 17 5 37z" />
    <glyph glyph-name="Japan1.10520" unicode="&#x24f0;" 
d="M500 859q130 0 240.5 -64t174.5 -174.5t64 -240.5t-64 -240.5t-174.5 -174.5t-240.5 -64t-240.5 64t-174.5 174.5t-64 240.5q0 97 38 186t102 153t153 102t186 38zM198 698v-68q24 5 60 5h22v-466q0 -61 -7 -104h81q-7 45 -7 104v379q0 80 7 150q-24 -4 -68 -4h-27
q-37 0 -61 4zM732 558l67 19q-22 59 -44 84q-40 45 -106 45q-88 0 -137.5 -89.5t-49.5 -248.5q0 -145 38 -222q46 -93 139 -93q77 0 123.5 59.5t46.5 159.5q0 95 -41 151t-111 56q-56 0 -97 -41q-20 -20 -34 -57q7 151 44 217q29 51 75 51q39 0 62 -31q15 -20 25 -60z
M646 421q38 0 62 -27q36 -39 36 -132q0 -66 -28.5 -108t-73.5 -42q-46 0 -75.5 44t-29.5 112q0 79 41 122q31 31 68 31z" />
    <glyph glyph-name="Japan1.10521" unicode="&#x24f1;" 
d="M500 859q130 0 240.5 -64t174.5 -174.5t64 -240.5t-64 -240.5t-174.5 -174.5t-240.5 -64t-240.5 64t-174.5 174.5t-64 240.5q0 97 38 186t102 153t153 102t186 38zM208 697v-69q25 5 60 5h30v-465q0 -59 -7 -104h81q-7 43 -7 104v378q0 82 7 151q-25 -4 -68 -4h-35
q-34 0 -61 4zM546 64h77q14 195 74 356q24 67 54 129t49 87v60q-30 -3 -78 -3h-169q-48 0 -78 5v-71q34 6 77 6h174q-80 -152 -121.5 -282.5t-58.5 -286.5z" />
    <glyph glyph-name="Japan1.10522" unicode="&#x24f2;" 
d="M500 859q130 0 240.5 -64t174.5 -174.5t64 -240.5t-64 -240.5t-174.5 -174.5t-240.5 -64t-240.5 64t-174.5 174.5t-64 240.5q0 97 38 186t102 153t153 102t186 38zM196 698v-68q24 5 60 5h22v-466q0 -61 -7 -104h82q-7 43 -7 104v379q0 78 6 150q-23 -4 -68 -4h-27
q-37 0 -61 4zM562 396q-39 -10 -66 -38q-46 -49 -46 -128q0 -82 48 -129t131 -47q85 0 133.5 47.5t48.5 130.5q0 78 -45 126q-23 26 -66 38q23 7 39 20q50 42 50 127q0 75 -42.5 118.5t-115.5 43.5q-74 0 -116.5 -43t-42.5 -119q0 -85 50 -127q15 -13 40 -20zM632 647
q40 0 66 -28q27 -29 27 -84q0 -52 -25 -82t-68 -30t-68.5 30t-25.5 82q0 47 18 73q27 39 76 39zM632 366q51 0 80.5 -34t29.5 -94t-29 -92.5t-82 -32.5t-81.5 32t-28.5 91q0 61 29 95.5t82 34.5z" />
    <glyph glyph-name="Japan1.10523" unicode="&#x24f3;" 
d="M501 859q130 0 240.5 -64t174.5 -174.5t64 -240.5t-64 -240.5t-174.5 -174.5t-240.5 -64t-240.5 64t-175 174.5t-64.5 240.5q0 97 38 186t102.5 153t153 102t186.5 38zM196 700v-69q24 5 60 5h22v-465q0 -61 -7 -104h82q-7 43 -7 104v378q0 82 7 151q-24 -4 -69 -4h-27
q-32 0 -61 4zM541 204l-68 -19q20 -58 44 -85q41 -45 108 -45q185 0 185 340q0 152 -41 225q-47 88 -137 88q-77 0 -123.5 -58.5t-46.5 -155.5t41 -153.5t112 -56.5q55 0 94 39q20 19 36 57q-6 -132 -30 -194q-29 -73 -87 -73q-38 0 -61 31q-14 16 -26 60zM627 341
q-46 0 -72 40.5t-26 110.5q0 71 28 114t74 43q44 0 74 -44.5t30 -110.5q0 -79 -41 -122q-29 -31 -67 -31z" />
    <glyph glyph-name="Japan1.10524" unicode="&#x24f4;" 
d="M500 860q130 0 240.5 -64t174.5 -174.5t64 -240.5t-64 -240.5t-174.5 -175t-240.5 -64.5q-97 0 -186 38t-153 102.5t-102 153t-38 186.5q0 97 38 186t102 153t153 102t186 38zM688 54q84 0 128 83.5t44 242.5q0 160 -44 243t-129 83q-83 0 -126.5 -82.5t-43.5 -239.5
q0 -330 171 -330zM688 645q106 0 106 -265t-108 -265q-103 0 -103 266q0 264 105 264zM167 521l67 -9q9 88 40 114q23 20 56 20q37 0 60.5 -29t23.5 -75q0 -63 -42 -109q-23 -27 -63 -65q-77 -77 -106 -141q-26 -56 -36 -139q-1 -5 -1.5 -10.5t-1 -8.5t-1.5 -7q45 3 79 3
h158q49 0 80 -4v68q-25 -5 -78 -5h-165q11 66 40.5 112.5t109.5 121.5q51 49 71 88.5t20 91.5q0 78 -40 122.5t-110 44.5q-67 0 -105.5 -44.5t-55.5 -139.5z" />
    <glyph glyph-name="Japan1.16223" unicode="&#x24f5;" 
d="M370 586v66q18 -3 62 -4h47q23 0 63 4q-7 -71 -7 -123v-352q0 -41 6 -84h-77q6 45 6 84v414h-35q-30 0 -65 -5zM501 784q167 0 285.5 -118.5t118.5 -285.5q0 -168 -118.5 -286.5t-285.5 -118.5q-168 0 -286.5 118.5t-118.5 286.5q0 167 118.5 285.5t286.5 118.5zM501 752
q-155 0 -264 -109t-109 -263t109 -263.5t264 -109.5q154 0 263 109.5t109 263.5t-109 263t-263 109zM500 860q130 0 240.5 -64t174.5 -174.5t64 -240.5t-64 -240.5t-174.5 -175t-240.5 -64.5q-97 0 -186 38t-153 102.5t-102 153t-38 186.5q0 97 38 186t102 153t153 102
t186 38zM500 828q-185 0 -315.5 -131t-130.5 -316t130.5 -316t315.5 -131t315.5 131t130.5 316t-130.5 316t-315.5 131z" />
    <glyph glyph-name="Japan1.16224" unicode="&#x24f6;" 
d="M606 111h-221q-47 0 -84 -4q9 58 19 86.5t33 64.5q37 57 101 103q15 11 88 63q45 31 61.5 54t16.5 55q0 41 -30.5 64t-84.5 23q-81 0 -110 -59q-10 -17 -16 -60l-69 12q12 53 28 80q50 84 167 84q84 0 133.5 -39t49.5 -106q0 -62 -48 -110q-21 -21 -74 -56
q-90 -61 -113 -82q-54 -49 -71 -115h225q44 0 89 5v-68q-48 5 -90 5zM501 784q167 0 285.5 -118.5t118.5 -285.5q0 -168 -118.5 -286.5t-285.5 -118.5q-168 0 -286.5 118.5t-118.5 286.5q0 167 118.5 285.5t286.5 118.5zM501 752q-155 0 -264 -109t-109 -263t109 -263.5
t264 -109.5q154 0 263 109.5t109 263.5t-109 263t-263 109zM500 860q130 0 240.5 -64t174.5 -174.5t64 -240.5t-64 -240.5t-174.5 -175t-240.5 -64.5q-97 0 -186 38t-153 102.5t-102 153t-38 186.5q0 97 38 186t102 153t153 102t186 38zM500 828q-185 0 -315.5 -131
t-130.5 -316t130.5 -316t315.5 -131t315.5 131t130.5 316t-130.5 316t-315.5 131z" />
    <glyph glyph-name="Japan1.16225" unicode="&#x24f7;" 
d="M292 226l68 16q10 -34 23 -50q36 -44 111 -44q62 0 97.5 29t35.5 79q0 108 -142 108q-34 0 -62 -4v64q25 -4 54 -4q64 0 94 22q38 27 38 80q0 43 -29 67.5t-81 24.5q-64 0 -94 -36q-12 -16 -23 -52l-68 14q13 41 26 59q47 71 161 71q81 0 128 -38.5t47 -105.5
q0 -52 -28 -86.5t-79 -45.5q60 -7 93 -44.5t33 -97.5q0 -75 -53.5 -118t-146.5 -43q-129 0 -180 81q-9 15 -23 54zM501 784q167 0 285.5 -118.5t118.5 -285.5q0 -168 -118.5 -286.5t-285.5 -118.5q-168 0 -286.5 118.5t-118.5 286.5q0 167 118.5 285.5t286.5 118.5zM501 752
q-155 0 -264 -109t-109 -263t109 -263.5t264 -109.5q154 0 263 109.5t109 263.5t-109 263t-263 109zM500 860q130 0 240.5 -64t174.5 -174.5t64 -240.5t-64 -240.5t-174.5 -175t-240.5 -64.5q-97 0 -186 38t-153 102.5t-102 153t-38 186.5q0 97 38 186t102 153t153 102
t186 38zM500 828q-185 0 -315.5 -131t-130.5 -316t130.5 -316t315.5 -131t315.5 131t130.5 316t-130.5 316t-315.5 131z" />
    <glyph glyph-name="Japan1.16226" unicode="&#x24f8;" 
d="M250 238v61q29 31 48 56l183 228q29 36 54 75h64q-5 -55 -5 -125v-235h24q46 0 78 5v-67q-36 5 -78 5h-24v-60q0 -49 5 -81h-73q6 35 6 81v60h-192q-45 0 -90 -3zM532 298v180q0 46 3 87q-8 -11 -45 -59l-165 -208h207zM501 784q167 0 285.5 -118.5t118.5 -285.5
q0 -168 -118.5 -286.5t-285.5 -118.5q-168 0 -286.5 118.5t-118.5 286.5q0 167 118.5 285.5t286.5 118.5zM501 752q-155 0 -264 -109t-109 -263t109 -263.5t264 -109.5q154 0 263 109.5t109 263.5t-109 263t-263 109zM500 860q130 0 240.5 -64t174.5 -174.5t64 -240.5
t-64 -240.5t-174.5 -175t-240.5 -64.5q-97 0 -186 38t-153 102.5t-102 153t-38 186.5q0 97 38 186t102 153t153 102t186 38zM500 828q-185 0 -315.5 -131t-130.5 -316t130.5 -316t315.5 -131t315.5 131t130.5 316t-130.5 316t-315.5 131z" />
    <glyph glyph-name="Japan1.16227" unicode="&#x24f9;" 
d="M385 328l-60 5q7 31 11 76l16 170q2 27 2 46q0 5 -3 28q28 -5 82 -5h148q47 0 88 6v-68q-34 5 -88 5h-166l-14 -148q-1 -12 -6 -33q48 46 116 46q86 0 137 -49t51 -132q0 -88 -54 -141t-144 -53q-105 0 -161 73q-11 13 -28 50l66 19q7 -22 16 -35q36 -50 108 -50
q59 0 95 36.5t36 97.5q0 62 -33.5 95.5t-95.5 33.5q-31 0 -61.5 -14.5t-46.5 -37.5q-3 -4 -11 -21zM501 784q167 0 285.5 -118.5t118.5 -285.5q0 -168 -118.5 -286.5t-285.5 -118.5q-168 0 -286.5 118.5t-118.5 286.5q0 167 118.5 285.5t286.5 118.5zM501 752
q-155 0 -264 -109t-109 -263t109 -263.5t264 -109.5q154 0 263 109.5t109 263.5t-109 263t-263 109zM500 860q130 0 240.5 -64t174.5 -174.5t64 -240.5t-64 -240.5t-174.5 -175t-240.5 -64.5q-97 0 -186 38t-153 102.5t-102 153t-38 186.5q0 97 38 186t102 153t153 102
t186 38zM500 828q-185 0 -315.5 -131t-130.5 -316t130.5 -316t315.5 -131t315.5 131t130.5 316t-130.5 316t-315.5 131z" />
    <glyph glyph-name="Japan1.16228" unicode="&#x24fa;" 
d="M684 553l-64 -20q-11 28 -19 38q-34 43 -91 43q-71 0 -109 -65q-33 -56 -40 -168q49 84 155 84q84 0 134 -50t50 -135t-53.5 -137t-140.5 -52q-98 0 -155 71q-54 70 -54 202q0 97 28 173q14 39 44 71t66 47q34 14 79 14q93 0 142 -66q11 -14 28 -50zM509 409
q-59 0 -97.5 -37t-38.5 -92q0 -57 38.5 -95t95.5 -38q56 0 94 36q35 35 35 96t-33.5 95.5t-93.5 34.5zM501 784q167 0 285.5 -118.5t118.5 -285.5q0 -168 -118.5 -286.5t-285.5 -118.5q-168 0 -286.5 118.5t-118.5 286.5q0 167 118.5 285.5t286.5 118.5zM501 752
q-155 0 -264 -109t-109 -263t109 -263.5t264 -109.5q154 0 263 109.5t109 263.5t-109 263t-263 109zM500 860q130 0 240.5 -64t174.5 -174.5t64 -240.5t-64 -240.5t-174.5 -175t-240.5 -64.5q-97 0 -186 38t-153 102.5t-102 153t-38 186.5q0 97 38 186t102 153t153 102
t186 38zM500 828q-185 0 -315.5 -131t-130.5 -316t130.5 -316t315.5 -131t315.5 131t130.5 316t-130.5 316t-315.5 131z" />
    <glyph glyph-name="Japan1.16229" unicode="&#x24fb;" 
d="M698 634v-57l-3 -3q-10 -8 -22 -24.5t-58 -86.5q-26 -38 -55 -103t-47 -125q-19 -64 -31 -160h-77q22 143 69 251q52 121 147 246h-229q-50 0 -85 -6v69q40 -5 86 -5h218q54 0 87 4zM501 784q167 0 285.5 -118.5t118.5 -285.5q0 -168 -118.5 -286.5t-285.5 -118.5
q-168 0 -286.5 118.5t-118.5 286.5q0 167 118.5 285.5t286.5 118.5zM501 752q-155 0 -264 -109t-109 -263t109 -263.5t264 -109.5q154 0 263 109.5t109 263.5t-109 263t-263 109zM500 860q130 0 240.5 -64t174.5 -174.5t64 -240.5t-64 -240.5t-174.5 -175t-240.5 -64.5
q-97 0 -186 38t-153 102.5t-102 153t-38 186.5q0 97 38 186t102 153t153 102t186 38zM500 828q-185 0 -315.5 -131t-130.5 -316t130.5 -316t315.5 -131t315.5 131t130.5 316t-130.5 316t-315.5 131z" />
    <glyph glyph-name="Japan1.16230" unicode="&#x24fc;" 
d="M414 394q-44 12 -69.5 47t-25.5 84q0 67 49.5 106.5t133.5 39.5q83 0 132.5 -39.5t49.5 -106.5q0 -48 -25.5 -83.5t-69.5 -47.5q55 -13 87 -51.5t32 -92.5q0 -88 -71 -129q-52 -30 -136 -30q-93 0 -145 36q-62 43 -62 123q0 54 32.5 93t87.5 51zM502 615q-51 0 -85 -24
q-34 -25 -34 -72q0 -46 31.5 -73t86.5 -27q56 0 87.5 27t31.5 74q0 43 -32.5 69t-85.5 26zM502 363q-66 0 -103.5 -29t-37.5 -81q0 -50 36.5 -77.5t103.5 -27.5t103.5 27.5t36.5 77.5q0 51 -37.5 80.5t-101.5 29.5zM501 784q167 0 285.5 -118.5t118.5 -285.5
q0 -168 -118.5 -286.5t-285.5 -118.5q-168 0 -286.5 118.5t-118.5 286.5q0 167 118.5 285.5t286.5 118.5zM501 752q-155 0 -264 -109t-109 -263t109 -263.5t264 -109.5q154 0 263 109.5t109 263.5t-109 263t-263 109zM500 860q130 0 240.5 -64t174.5 -174.5t64 -240.5
t-64 -240.5t-174.5 -175t-240.5 -64.5q-97 0 -186 38t-153 102.5t-102 153t-38 186.5q0 97 38 186t102 153t153 102t186 38zM500 828q-185 0 -315.5 -131t-130.5 -316t130.5 -316t315.5 -131t315.5 131t130.5 316t-130.5 316t-315.5 131z" />
    <glyph glyph-name="Japan1.16231" unicode="&#x24fd;" 
d="M320 205l65 21q12 -29 20 -40q32 -41 94 -41q74 0 113 64q32 54 36 166q-21 -38 -64 -60.5t-93 -22.5q-82 0 -131.5 50.5t-49.5 134.5t55 137t141 53q92 0 144 -60q62 -71 62 -217t-56 -224t-160 -78q-97 0 -146 64q-12 15 -30 53zM501 348q59 0 97.5 37t38.5 92
q0 58 -37.5 96t-94.5 38q-58 0 -94 -36.5t-36 -95.5q0 -61 33.5 -96t92.5 -35zM501 784q167 0 285.5 -118.5t118.5 -285.5q0 -168 -118.5 -286.5t-285.5 -118.5q-168 0 -286.5 118.5t-118.5 286.5q0 167 118.5 285.5t286.5 118.5zM501 752q-155 0 -264 -109t-109 -263
t109 -263.5t264 -109.5q154 0 263 109.5t109 263.5t-109 263t-263 109zM500 860q130 0 240.5 -64t174.5 -174.5t64 -240.5t-64 -240.5t-174.5 -175t-240.5 -64.5q-97 0 -186 38t-153 102.5t-102 153t-38 186.5q0 97 38 186t102 153t153 102t186 38zM500 828
q-185 0 -315.5 -131t-130.5 -316t130.5 -316t315.5 -131t315.5 131t130.5 316t-130.5 316t-315.5 131z" />
    <glyph glyph-name="Japan1.16232" unicode="&#x24fe;" 
d="M609 100q-151 0 -151 279q0 137 38.5 208t111.5 71q75 0 114 -71t39 -208q0 -136 -39 -207.5t-113 -71.5zM609 602q-88 0 -88 -223q0 -222 86 -222q91 0 91 223q0 222 -89 222zM501 784q167 0 285.5 -118.5t118.5 -285.5q0 -168 -118.5 -286.5t-285.5 -118.5
q-168 0 -286.5 118.5t-118.5 286.5q0 167 119 285.5t286 118.5zM244 589v61q-55 -52 -85.5 -123t-30.5 -147q0 -154 109 -263.5t264 -109.5q154 0 263 109.5t109 263.5t-109 263t-263 109q-146 0 -254 -99q2 -1 6 -2q16 -2 41 -2h23q29 0 54 3q-6 -60 -6 -130v-321
q0 -49 6 -91h-74q6 39 6 91v393h-17q-19 0 -42 -5zM500 860q130 0 240.5 -64t174.5 -174.5t64 -240.5t-64 -240.5t-174.5 -175t-240.5 -64.5q-97 0 -186 38t-153 102.5t-102 153t-38 186.5q0 97 38 186t102 153t153 102t186 38zM500 828q-185 0 -315.5 -131t-130.5 -316
t130.5 -316t315.5 -131t315.5 131t130.5 316t-130.5 316t-315.5 131z" />
    <glyph glyph-name="Japan1.8286" unicode="&#x2776;" 
d="M500 859q130 0 240.5 -64t174.5 -174.5t64 -240.5t-64 -240.5t-174.5 -174.5t-240.5 -64t-240.5 64t-174.5 174.5t-64 240.5q0 97 38 186t102 153t153 102t186 38zM360 690v-68q34 5 72 5h42v-479q0 -54 -7 -94h84q-7 43 -7 94v405q0 67 7 137q-44 -4 -69 -4h-54
q-50 1 -68 4z" />
    </font>
</defs>
</svg>
